В поисках дори торрент 1080


/ Finding Dory (2016) BD-Remux 1080p » HDReactor. , HD !

: -, . , - . . . , . ? ? ? ? , .

: Blu-Ray Remux (1080p): MPEG-4 AVC, 23.6 M/, 1920x1080: (AC3, 6 ch, 640 /), (DTS-HD MA, 8 ch, 4526 /): 01:37:04: : ,

GeneralUnique ID : 229626612626599883010746255934796639618 (0xACC07A17FDC3B0BC937E810D13DCAD82)Complete name : G:\Video\Finding.Dory.2016.BDREMUX.1080p.ExKinoRay.mkvFormat : MatroskaFormat version : Version 4 / Version 2File size : 19.5 GiBDuration : 1 h 37 minOverall bit rate mode : VariableOverall bit rate : 28.8 Mb/sMovie name : Finding.Dory.2016 build by ******Encoded date : UTC 2016-11-19 17:53:38Writing application : mkvmerge v8.3.0 ('Over the Horizon') 64bitWriting library : libebml v1.3.1 + libmatroska v1.4.2

VideoID : 1Format : AVCFormat/Info : Advanced Video CodecFormat profile : [email protected]Format settings, CABAC : YesFormat settings, ReFrames : 4 framesFormat settings, GOP : M=1, N=12Codec ID : V_MPEG4/ISO/AVCDuration : 1 h 37 minBit rate mode : VariableBit rate : 23.6 Mb/sMaximum bit rate : 32.0 Mb/sWidth : 1 920 pixelsHeight : 1 080 pixelsDisplay aspect ratio : 16:9Frame rate mode : ConstantFrame rate : 23.976 (23976/1000) FPSOriginal frame rate : 23.976 (24000/1001) FPSColor space : YUVChroma subsampling : 4:2:0Bit depth : 8 bitsScan type : ProgressiveBits/(Pixel*Frame) : 0.475Stream size : 16.0 GiB (82%)Title : Finding.Dory.2016 build by ******Language : EnglishDefault : YesForced : No

Audio #1ID : 2Format : AC-3Format/Info : Audio Coding 3Mode extension : CM (complete main)Format settings, Endianness : BigCodec ID : A_AC3Duration : 1 h 37 minBit rate mode : ConstantBit rate : 640 kb/sChannel(s) : 6 channelsChannel positions : Front: L C R, Side: L R, LFESampling rate : 48.0 kHzFrame rate : 31.250 FPS (1536 spf)Bit depth : 16 bitsCompression mode : LossyStream size : 444 MiB (2%)Title : Dub [License]Language : RussianDefault : YesForced : No

Audio #2ID : 3Format : DTSFormat/Info : Digital Theater SystemsFormat profile : MA / CoreMode : 16Format settings, Endianness : BigCodec ID : A_DTSDuration : 1 h 37 minBit rate mode : Variable / ConstantBit rate : 4 526 kb/s / 1 509 kb/sChannel(s) : 8 channels / 6 channelsChannel positions : Front: L C R, Side: L R, Back: L R, LFE / Front: L C R, Side: L R, LFESampling rate : 48.0 kHzFrame rate : 93.750 FPS (512 spf)Bit depth : 24 bitsCompression mode : Lossless / LossyStream size : 3.07 GiB (16%)Title : OriginalLanguage : EnglishDefault : NoForced : No

Text #1ID : 4Format : UTF-8Codec ID : S_TEXT/UTF8Codec ID/Info : UTF-8 Plain TextDuration : 1 h 35 minBit rate : 127 b/sCount of elements : 1469Stream size : 89.0 KiB (0%)Title : FullLanguage : RussianDefault : NoForced : No

Text #2ID : 5Format : UTF-8Codec ID : S_TEXT/UTF8Codec ID/Info : UTF-8 Plain TextDuration : 1 h 35 minBit rate : 85 b/sCount of elements : 1578Stream size : 59.4 KiB (0%)Title : FullLanguage : EnglishDefault : NoForced : No

Text #3ID : 6Format : UTF-8Codec ID : S_TEXT/UTF8Codec ID/Info : UTF-8 Plain TextDuration : 1 h 35 minBit rate : 92 b/sCount of elements : 1764Stream size : 64.7 KiB (0%)Title : SDHLanguage : EnglishDefault : NoForced : No

Menu00:00:00.000 : en:Prologue00:02:35.739 : en:Lost At Sea00:06:50.243 : en:Life With Dory00:10:53.194 : en:Losing Dory00:13:33.187 : en:Dory Leads00:15:25.132 : en:Totally Sick00:17:03.314 : en:Shipping Lanes00:19:35.466 : en:Marine Life Institute00:21:35.294 : en:Under Quarantine00:24:58.705 : en:Getting In00:27:08.543 : en:No Pipes00:30:33.206 : en:Manifest Destiny00:35:00.265 : en:Operation Becky00:37:52.020 : en:Stroller Crossing00:40:17.999 : en:Stuck00:41:06.672 : en:Argument00:42:30.423 : en:Touch Pool00:46:03.427 : en:Confession00:48:41.710 : en:Tag00:50:27.858 : en:Childhood Home00:55:06.678 : en:Pipe Travel00:57:05.839 : en:Meeting Marlin01:00:41.346 : en:Off To Cleveland01:04:32.952 : en:All Alone01:10:36.816 : en:Game Plan01:12:28.302 : en:Stop That Truck01:14:09.862 : en:Time To Go01:18:26.493 : en:Big Finish01:26:49.329 : en:Epilogue

hdreactor.info

Скачать торрент В поисках Дори / Finding Dory (2016) BDRip 1080p от New-Team

Информация о фильмеНазвание: В поисках ДориОригинальное название: Finding DoryСтрана: СШАСтудия: Pixar Animation Studios, Walt Disney PicturesЖанр: Мультфильм, комедия, приключения, семейныйГод выпуска: 2016Продолжительность: 01:37:03

Перевод: Профессиональный (дублированный) iTunesCубтитры: Rus, EngОригинальная аудиодорожка: английский

Режиссер: Эндрю Стэнтон, Энгус МакЛэйн / Andrew Stanton, Angus MacLane

В ролях: Эллен ДеДженерес, Альберт Брукс, Эд О’Нил, Кэйтлин Олсон, Хайден Роуленс, Тай Буррелл, Дайан Китон, Юджин Леви, Слоун Мюррэй, Идрис Эльба

Описание: Дори — синяя доброжелательная рыбка-хирург, страдающая провалами в памяти. Она упорно стремится избавиться от своего недуга и найти свою семью.

Тип релиза: BDRip 1080pКонтейнер: MKV

Видео: MPEG-4 AVC, 15.4 Mбит/с, 1920x1080, 23,976 fpsАудио: Rus, AC3, 384 kb/s (6 ch), 48 kHzАудио 2: Eng, DTS, 1510 kb/s (6 ch), 48 kHzФормат субтитров: softsub (SRT)

Раздача от:

MediaInfo

x264 [info]: frame I:790 Avg QP:15.49 size:253174 x264 [info]: frame P:42470 Avg QP:17.11 size:119912 x264 [info]: frame B:96367 Avg QP:17.60 size: 61410 x264 [info]: consecutive B-frames: 9.6% 3.8% 18.1% 17.7% 19.1% 29.7% 1.4% 0.3% 0.4%

Format : Matroska Format version : Version 4 / Version 2 File size : 11.7 GiB Duration : 1h 37mn Overall bit rate : 17.3 Mbps Movie name : В поисках Дори. (Tonik) Encoded date : UTC 2016-10-27 14:30:59 Writing application : mkvmerge v7.1.0 ('Good Love') 64bit built on Jul 27 2014 13:06:55 Writing library : libebml v1.3.0 + libmatroska v1.4.1 _STATISTICS_WRITING_APP : mkvmerge v7.1.0 ('Good Love') 64bit built on Jul 27 2014 13:06:55 _STATISTICS_WRITING_DATE_UTC : 2016-10-27 14:30:59 _STATISTICS_TAGS : BPS DURATION NUMBER_OF_FRAMES NUMBER_OF_BYTES DURATION : 01:35:08.041000000 NUMBER_OF_FRAMES : 1472 NUMBER_OF_BYTES : 58456

Video ID : 1 Format : AVC Format/Info : Advanced Video Codec Format profile : [email protected] Format settings, CABAC : Yes Format settings, ReFrames : 4 frames Codec ID : V_MPEG4/ISO/AVC Duration : 1h 37mn Bit rate : 15.4 Mbps Width : 1 920 pixels Height : 1 080 pixels Display aspect ratio : 16:9 Frame rate mode : Constant Frame rate : 23.976 fps Color space : YUV Chroma subsampling : 4:2:0 Bit depth : 8 bits Scan type : Progressive Bits/(Pixel*Frame) : 0.310 Stream size : 10.2 GiB (87%) Writing library : x264 core 148 r2721kMod 72d53ab Encoding settings : cabac=1 / ref=4 / deblock=1:-1:-1 / analyse=0x3:0x133 / me=umh / subme=11 / psy=1 / fade_compensate=0.00 / psy_rd=0.80:0.00 / mixed_ref=1 / me_range=64 / chroma_me=1 / trellis=2 / 8x8dct=1 / cqm=0 / deadzone=21,11 / fast_pskip=0 / chroma_qp_offset=-2 / threads=12 / lookahead_threads=2 / sliced_threads=0 / nr=0 / decimate=0 / interlaced=0 / bluray_compat=0 / constrained_intra=0 / fgo=0 / bframes=8 / b_pyramid=2 / b_adapt=2 / b_bias=0 / direct=3 / weightb=1 / open_gop=0 / weightp=2 / keyint=240 / keyint_min=24 / scenecut=40 / intra_refresh=0 / rc=2pass / mbtree=0 / bitrate=15400 / ratetol=1.0 / qcomp=0.70 / qpmin=0 / qpmax=69 / qpstep=4 / cplxblur=20.0 / qblur=0.5 / ip_ratio=1.25 / pb_ratio=1.20 / aq=3:1.10 Language : English Default : Yes Forced : No DURATION : 01:37:03.610000000 NUMBER_OF_FRAMES : 139627 NUMBER_OF_BYTES : 11210541102 _STATISTICS_WRITING_APP : mkvmerge v7.1.0 ('Good Love') 64bit built on Jul 27 2014 13:06:55 _STATISTICS_WRITING_DATE_UTC : 2016-10-27 14:30:59 _STATISTICS_TAGS : BPS DURATION NUMBER_OF_FRAMES NUMBER_OF_BYTES

Audio #1 ID : 2 Format : AC-3 Format/Info : Audio Coding 3 Mode extension : CM (complete main) Format settings, Endianness : Big Codec ID : A_AC3 Duration : 1h 37mn Bit rate mode : Constant Bit rate : 384 Kbps Channel(s) : 6 channels Channel positions : Front: L C R, Side: L R, LFE Sampling rate : 48.0 KHz Bit depth : 16 bits Compression mode : Lossy Stream size : 267 MiB (2%) Title : iTunes Language : Russian Default : Yes Forced : No

Audio #2 ID : 3 Format : DTS Format/Info : Digital Theater Systems Mode : 16 Format settings, Endianness : Big Codec ID : A_DTS Duration : 1h 37mn Bit rate mode : Constant Bit rate : 1 509 Kbps Channel(s) : 6 channels Channel positions : Front: L C R, Side: L R, LFE Sampling rate : 48.0 KHz Bit depth : 24 bits Compression mode : Lossy Stream size : 1.02 GiB (9%) Language : English Default : No Forced : No

Text #1 ID : 4 Format : UTF-8 Codec ID : S_TEXT/UTF8 Codec ID/Info : UTF-8 Plain Text Language : Russian Default : No Forced : No

Text #2 ID : 5 Format : UTF-8 Codec ID : S_TEXT/UTF8 Codec ID/Info : UTF-8 Plain Text Language : English Default : No Forced : No

Menu 00:00:00.000 : en:Chapter 01 00:02:35.738 : en:Chapter 02 00:06:50.243 : en:Chapter 03 00:10:53.194 : en:Chapter 04 00:13:33.187 : en:Chapter 05 00:15:25.132 : en:Chapter 06 00:17:03.313 : en:Chapter 07 00:19:35.465 : en:Chapter 08 00:21:35.293 : en:Chapter 09 00:24:58.705 : en:Chapter 10 00:27:08.543 : en:Chapter 11 00:30:33.206 : en:Chapter 12 00:35:00.264 : en:Chapter 13 00:37:52.019 : en:Chapter 14 00:40:17.998 : en:Chapter 15 00:41:06.672 : en:Chapter 16 00:42:30.422 : en:Chapter 17 00:46:03.427 : en:Chapter 18 00:48:41.710 : en:Chapter 19 00:50:27.857 : en:Chapter 20 00:55:06.678 : en:Chapter 21 00:57:05.838 : en:Chapter 22 01:00:41.345 : en:Chapter 23 01:04:32.952 : en:Chapter 24 01:10:36.815 : en:Chapter 25 01:12:28.301 : en:Chapter 26 01:14:09.861 : en:Chapter 27 01:18:26.493 : en:Chapter 28 01:26:49.328 : en:Chapter 29 01:37:03.400 : en:Chapter 30

krutor.org

Скачать торрент В поисках Дори / Finding Dory (2016) BDRip 1080p от Ash61 | 3D-Video | halfOU

В поисках ДориFinding Dory«Вы ее не видели?»(Русскоязычный видеоряд)Год выпуска: 2016Страна: США (Walt Disney Company, Pixar Animation Studios)Жанр: Мультфильм, Комедия, Приключения, СемейныйПродолжительность: 01:37:04

Перевод: Профессиональный дублированный (лицензия)

Режиссеры: Эндрю Стэнтон, Энгус МакЛэйн / Andrew Stanton, Angus MacLane

Роли озвучивали (дублировали):

.............

Dory - Эллен ДеДженерес (Елена Шульман) Marlin - Альберт Брукс (Константин Карасик) Hank - Эд О’Нил (Сергей Чихачев) Destiny - Кэйтлин Олсон (Софья Ануфриева) Nemo - Хайден Роуленс (Георгий Клопов) Bailey - Тай Бурелл (Диомид Виноградов) Jenny - Дайан Китон (Елена Солодилина) Charlie - Юджин Леви (Андрей Вальц) Young Dory - Слоун Мюррэй (Ева Роде) Fluke - Идрис Эльба (Владимир Антоник) Rudder - Доминик Уэст (Денис Некрасов) Sigourney Weaver - Сигурни Уивер (Николай Дроздов) Gill - Уиллем Дефо

Описание: Дори — синяя доброжелательная рыбка-хирург, страдающая провалами в памяти. Она упорно стремится избавиться от своего недуга и найти свою семью.Доп. инфо: Главы проименованные, русскоязычные.

Знаете ли вы, что...

  • Песню под названием «Unforgettable» исполняет певица Сия, подруга Эллен ДеДженерес, голосом которой говорит Дори.
  • Во втором трейлере к фильму звучит композиция «Solsbury Hill» в исполнении Питера Гэбриэла.
  • Изначально выход фильма на экраны был назначен на ноябрь 2015 года, но его перенесли на более поздний срок, так как на этот день назначили премьеру компьютерно-анимационного фильма студии «Pixar» «Хороший динозавр» (Питер Сон, 2015).
  • Третий сиквел «Pixar Animation Studios», в котором некоторых персонажей озвучивают новые актёры. Речь здесь идёт о голосах, которыми говорят Немо, Шелдон, Тэд, Жемчужина, Сквирт и Жак. Два других проекта это «История игрушек: Большой побег» (Ли Анкрич, 2010), где новыми голосами заговорили Энди и Слинки (хотя актёр, голосом которого Энди говорил в первых двух фильмах, здесь озвучил повзрослевшего Энди), и «Тачки 2» (Брэд Льюис и Джон Лассетер, 2011), где по-новому зазвучали Филмор и Рэд.
  • Второй анимационный фильм, распространением которого занимается «Walt Disney Pictures», где одного из персонажей озвучил Эд О`Нилл. Первым был фильм «Ральф» (Рич Мур, 2012).
  • Визитная карточка серии: на номерном знаке грузовика написано «CALA113». Сочетание А113 присутствует во всех фильмах студии «Pixar». Это номер аудитории в Калифорнийском институте искусств, где учились многие аниматоры «Pixar Animation Studios».
  • Впервые о выходе фильма «В поисках Дори» было объявлено в ток-шоу Эллен ДеДженерес после длительной кампании, в ходе которой поклонники требовали продолжения фильма Эндрю Стэнтона «В поисках Немо» (2003). Сама Эллен ДеДженерес в обеих картинах озвучила Дори.
  • Немо озвучил Хайден Роуленс, а не Александр Гоулд из фильма «В поисках Немо» (Эндрю Стэнтон, 2003). Гоулд повзрослел и утратил детский тембр голоса. В фильме «В поисках Дори» (Эндрю Стэнтон и Энгус МакЛэйн, 2003) он озвучил пассажира Карла (очень незначительный персонаж).
  • Жака озвучил Джером Рэнфт, брат Джо Рэнфта, который озвучил этот персонаж в фильме Эндрю Стэнтона «В поисках Немо» (2003), но трагически погиб в автокатастрофе в 2005 году. Впервые персонаж Рэнфта в сиквеле кто-то озвучивает — в фильме «История игрушек: Большой побег» (Ли Анкрич, 2010) Хрипун и Ленни, а в фильме «Тачки 2» (Брэд Льюис и Джон Лассетер, 2011) Рэд не говорят ни слова. Второй фильм студии «Pixar», в работе над которым принял участие Джером Рэнфт. Первым был фильм «Вверх» (2009).
  • Поменять место действия фильма с океанариума на Институт биологии моря было решено после того, как аниматорам студии «Pixar» устроили показ документального фильма Габриэлы Каупертвэйте «Черный плавник» (2013).
  • Дори набрала в «Фейсбуке» свыше 25 миллионов лайков, став самым популярным персонажем фильмов «Walt Disney Animation Sdudios» и «Pixar Animation Studio».
  • Действие фильма разворачивается через полгода после событий, о которых рассказывается в фильме Эндрю Стэнтона «В поисках Немо» (2003). В реальности премьеры фильмов разделяет 13 лет.
  • Третий фильм компании «Disney», в работе над которым принял участие Идрис Эльба и который выходит на экраны в 2016 году. Как и здесь, в фильмах «Зверополис» (Байрон Ховард, Рич Мур и Джаред Буш) и «Книга джунглей» (Джон Фавро) Эльба озвучил животных.
  • Первый фильм производства «Pixar Animation Studios» после выхода на экраны фильма «Тачки 2» (Брэд Льюис и Джон Лассетер, 2011), предназначенный к показу в широкоформатной кинематографической системе «IMAX».
  • Третий сиквел студии «Pixar», в котором главным героем становится один из второстепенных персонажей первого фильма. Главным героем фильма Эндрю Стэнтона «В поисках Немо» (2003) был Марлин, а здесь сюжет разворачивается вокруг Дори. В фильме «Университет монстров» (Дэн Скэнлон, 2013) главным героем становится Майк, тогда как в приквеле Пита Доктера «Корпорация монстров» (2001) им был Салли. В фильме «Тачки 2» (Брэд Льюис и Джон Лассетер, 2011) главным героем является Мэтр, один из персонажей фильма «Тачки» (Джон Лассетер, 2006), сюжет которого разворачивался вокруг Молнии Маккуина.
  • Третий фильм студии «Pixar», где главным героем является персонаж женского пола. Другие два фильма это «Головоломка» (Пит Доктер и Роналдо Дель Кармен, 2015) и «Храбрая сердцем» (2012).
  • Первый сиквел производства «Pixar Animation Studios», которому Американская киноассоциация присвоила рейтинг, отличный от рейтинга первого фильма. Фильму Эндрю Стэнтона «В поисках Немо» (2003) был присвоен рейтинг «G» (демонстрируется без ограничений), а его продолжение «В поисках Дори» (Эндрю Стэнтон и Энгус МакЛэйн, 2016) получило рейтинг «PG» (рекомендуется смотреть с родителями). Шестой фильм студии «Pixar», получивший рейтинг «PG». Этот же рейтинг был присвоен фильмам «Суперсемейка» (Брэд Бёрд, 2004), «Вверх» (Пит Доктер и Боб Питерсон, 2009), «Храбрая сердцем» (Марк Эндрюс, Бренда Чепмен, Стив Пурселл, 2012), «Головоломка» (Пит Доктер и Роналдо Дель Кармен, 2015) и «Хороший динозавр» (Питер Сон, 2015).
  • Эд О`Нил, озвучивший Хэнка, и Тай Бурелл, озвучивший Бэйли, вместе снимались в комедийном сериале «Американская семейка» (2009).
  • Доминик Уэст, озвучивший Ластера, и Идрис Эльба, озвучивший Хлюпа, вместе снимались в сериале «Прослушка» (2002-2008).

    Осторожно, следующие факты содержат спойлеры!

  • Черепаха Краш — единственный появляющийся в фильме «В поисках Дори» персонаж, с которым Марлин и Дори познакомились во время путешествия в Сидней в фильме «В поисках Немо» (Эндрю Стэнтон, 2003).
  • Джон Ратценбергер кого-то озвучивает во всех полнометражных мультфильмах «Pixar Animation Studios». «В поисках Дори» режиссёров Эндрю Стэнтона и Энгуса МакЛэйна — это единственный сиквел 2016 года, где Ратценбергер озвучивает не тот персонаж, который он озвучил в первом фильме. В фильме «В поисках Немо» (Эндрю Стэнтон, 2003) Ратценбергер озвучил стаю рыб, а в фильме «В поисках Дори» его голосом говорит краб Билл, с которым Дори и Хэнк знакомятся в Институте биологии моря.
  • Некоторые экспонаты выставки «Жизнь в открытом океане» (например, медуза и кит) напоминают животных из фильма Эндрю Стэнтона «В поисках Немо» (2003).
  • В Институте биологии моря всего три морских льва. Их зовут Флюк, Раддер и Джеральд. Джеральдом звали пеликана, который чуть не проглотил Марлина и Дори в фильме Эндрю Стэнтона «В поисках Немо» (2003), когда его в последний момент остановил Найджел.
  • Премьера: 8 июня 2016 (16 июня 2016)Релиз на Blu-Ray (DVD) (Россия): 22 ноября 2016Бюджет: $200 000 000Кассовые сборы: $1 017 603 920

    Качество: BDRip (by Ash61) (с BD 3D CEE)Контейнер: MKVФормат 3D: Half OverUnder / Вертикальная анаморфная стереопараПорядок ракурсов: левый ракурс первыйВидео: AVC / 1920х1080p / 23,976 fps / 12.3 Mbps

    Аудио:#1 - Русский / AC3 / 48 KHz / 5.1 ch / 640 Kbps (Дубляж - BD 3D CEE)#2 - Украинский / AC3 / 48 KHz / 2 ch / 192 Kbps (Дубляж - iTunes)#3 - Английский / AC3 / 48 KHz / 5.1 ch / 640 Kbps (Original - BD 3D)

    Субтитры (SRT):Вшитые (softsub):#1 - Русские Форсированные [версия для рус. видео - Ash61] (включены по умолчанию)#2 - Русские Полные [BD 3D CEE]#3 - Украинские Форсированные [вер.2 Ash61]#4 - English Full#5 - English SDH

    Внешние (UTF-8):#1 - Русские Форсированные [версия для рус. видео - Ash61] (включены по умолчанию)#2 - Украинские Форсированные [вер.2 Ash61]

    MediaInfo

    General Unique ID : 185837333562331681388229779763246519171 (0x8BCEF7F2D86ED94DB54F140CD311D383) Complete name : E:FindingDory(2016)3D-halfOU(Ash61)VideoRusFindingDory(2016)3D-halfOU(Ash61)VideoRus.mkv Format : Matroska Format version : Version 2 File size : 9.54 GiB Duration : 1h 37mn Overall bit rate : 14.1 Mbps Movie name : В поисках Дори / Finding Dory (2016) в 3Д Encoded date : UTC 2016-11-19 11:53:00 Writing application : mkvmerge v5.8.0 ('No Sleep / Pillow') built on Sep 2 2012 15:37:04 Writing library : libebml v1.2.3 + libmatroska v1.3.0

    Video ID : 1 Format : AVC Format/Info : Advanced Video Codec Format profile : [email protected] Format settings, CABAC : Yes Format settings, ReFrames : 4 frames Codec ID : V_MPEG4/ISO/AVC Duration : 1h 37mn Bit rate : 12.3 Mbps Width : 1 920 pixels Height : 1 080 pixels Display aspect ratio : 16:9 Frame rate mode : Constant Frame rate : 23.976 fps Color space : YUV Chroma subsampling : 4:2:0 Bit depth : 8 bits Scan type : Progressive Bits/(Pixel*Frame) : 0.248 Stream size : 8.35 GiB (88%) Title : BDRip by Ash61 (Video Rus) Writing library : x264 core 146 r2538 121396c Encoding settings : cabac=1 / ref=4 / deblock=1:-3:-3 / analyse=0x3:0x113 / me=umh / subme=10 / psy=1 / psy_rd=1.00:0.00 / mixed_ref=1 / me_range=32 / chroma_me=1 / trellis=2 / 8x8dct=1 / cqm=0 / deadzone=21,11 / fast_pskip=1 / chroma_qp_offset=-2 / threads=12 / lookahead_threads=2 / sliced_threads=0 / nr=0 / decimate=1 / interlaced=0 / bluray_compat=0 / constrained_intra=0 / bframes=8 / b_pyramid=2 / b_adapt=2 / b_bias=0 / direct=3 / weightb=1 / open_gop=0 / weightp=2 / keyint=250 / keyint_min=23 / scenecut=40 / intra_refresh=0 / rc_lookahead=60 / rc=crf / mbtree=1 / crf=15.7 / qcomp=0.70 / qpmin=0 / qpmax=69 / qpstep=4 / vbv_maxrate=40000 / vbv_bufsize=30000 / crf_max=0.0 / nal_hrd=none / filler=0 / frame-packing=4 / ip_ratio=1.40 / aq=1:0.70 Language : English Default : Yes Forced : No

    Audio #1 ID : 2 Format : AC-3 Format/Info : Audio Coding 3 Mode extension : CM (complete main) Format settings, Endianness : Big Codec ID : A_AC3 Duration : 1h 37mn Bit rate mode : Constant Bit rate : 640 Kbps Channel(s) : 6 channels Channel positions : Front: L C R, Side: L R, LFE Sampling rate : 48.0 KHz Bit depth : 16 bits Compression mode : Lossy Stream size : 444 MiB (5%) Title : Дубляж - BD 3D CEE Language : Russian Default : Yes Forced : No

    Audio #2 ID : 3 Format : AC-3 Format/Info : Audio Coding 3 Mode extension : CM (complete main) Format settings, Endianness : Big Codec ID : A_AC3 Duration : 1h 37mn Bit rate mode : Constant Bit rate : 192 Kbps Channel(s) : 2 channels Channel positions : Front: L R Sampling rate : 48.0 KHz Bit depth : 16 bits Compression mode : Lossy Stream size : 133 MiB (1%) Title : Дубляж - iTunes Language : Ukrainian Default : No Forced : No

    Audio #3 ID : 4 Format : AC-3 Format/Info : Audio Coding 3 Mode extension : CM (complete main) Format settings, Endianness : Big Codec ID : A_AC3 Duration : 1h 37mn Bit rate mode : Constant Bit rate : 640 Kbps Channel(s) : 6 channels Channel positions : Front: L C R, Side: L R, LFE Sampling rate : 48.0 KHz Bit depth : 16 bits Compression mode : Lossy Stream size : 444 MiB (5%) Title : Original Language : English Default : No Forced : No

    Text #1 ID : 5 Format : UTF-8 Codec ID : S_TEXT/UTF8 Codec ID/Info : UTF-8 Plain Text Title : Форсированные (Ash61-v2) Language : Russian Default : Yes Forced : No

    Text #2 ID : 6 Format : UTF-8 Codec ID : S_TEXT/UTF8 Codec ID/Info : UTF-8 Plain Text Title : Полные - BD 3D CEE Language : Russian Default : No Forced : No

    Text #3 ID : 7 Format : UTF-8 Codec ID : S_TEXT/UTF8 Codec ID/Info : UTF-8 Plain Text Title : Форсированные (Ash61-v2) Language : Ukrainian Default : No Forced : No

    Text #4 ID : 8 Format : UTF-8 Codec ID : S_TEXT/UTF8 Codec ID/Info : UTF-8 Plain Text Title : Full Language : English Default : No Forced : No

    Text #5 ID : 9 Format : UTF-8 Codec ID : S_TEXT/UTF8 Codec ID/Info : UTF-8 Plain Text Title : SDH Language : English Default : No Forced : No

    Menu 00:00:00.000 : : 1. Пролог 00:02:35.737 : : 2. Пропавшая в море 00:06:50.242 : : 3. Жизнь с Дори 00:10:53.193 : : 4. Дори пропала 00:13:33.187 : : 5. Вслед за Дори 00:15:25.131 : : 6. Совершенное безумие 00:17:03.312 : : 7. Торговые пути 00:19:35.464 : : 8. Институт морской жизни 00:21:35.292 : : 9. Карантин 00:24:58.704 : : 10. Вход 00:27:08.542 : : 11. Никаких труб 00:30:33.205 : : 12. Это судьба! 00:35:00.264 : : 13. Операция "Бекки" 00:37:52.018 : : 14. Коляска 00:40:17.998 : : 15. Застряли 00:41:06.672 : : 16. Ссора 00:42:30.422 : : 17. Контактный бассейн 00:46:03.427 : : 18. Признание 00:48:41.710 : : 19. Бирка 00:50:27.856 : : 20. Дом детства 00:55:06.677 : : 21. Приключения в трубах 00:57:05.838 : : 22. Встреча с Марлином 01:00:41.344 : : 23. В Кливленд! 01:04:32.952 : : 24. Одиночество 01:10:36.814 : : 25. План действий 01:12:28.301 : : 26. Остановите грузовик! 01:14:09.860 : : 27. Пора 01:18:26.493 : : 28. Большой финал 01:26:49.328 : : 29. Эпилог

    О форматах и методах просмотра 3D

    krutor.org

    Скачать торрент В поисках Дори / Finding Dory (2016) BDRemux 1080p от ExKinoRay

    Информация о фильмеНазвание: В поисках ДориОригинальное название: Finding DoryГод выхода: 2016Жанр: Мультфильм, комедия, приключения, семейныйРежиссер: Эндрю Стэнтон, Энгус МакЛэйнВ ролях: Эллен ДеДженерес, Альберт Брукс, Эд О’Нил, Кэйтлин Олсон, Хайден Роуленс, Тай Буррелл, Дайан Китон, Юджин Леви, Слоун Мюррэй, Идрис Эльба

    О фильме:Дори — синяя доброжелательная рыбка-хирург, страдающая провалами в памяти. Она упорно стремится избавиться от своего недуга и найти свою семью.

    Страна: СШАСтудия: Pixar Animation Studios, Walt Disney PicturesПродолжительность: 01:37:02Перевод: Дублированный | iTunes

    ФайлКодек: MPEG-4Качество: BDRemux 1080pВидео: 1920x1080, 23.6 Mbit/s, 23.976 fpsЗвук: Аудио #01: 48 kHz, AC3, 5.1, 384 Kbps | Дублированный | iTunes |Аудио #02: 48 kHz, DTS-HD MA, 7.1, 4527 kbps | Оригинал |Субтитры: Русские, английские

    MI

    General Unique ID : 237576786389385428608547640165921260016 (0xB2BB9FEC547FA59C9760ACC63C7901F0) Complete name : H:VideoFinding.Dory.2016.D.BDREMUX.1080p.ExKinoRay.mkv Format : Matroska Format version : Version 4 / Version 2 File size : 19.4 GiB Duration : 1 h 37 min Overall bit rate mode : Variable Overall bit rate : 28.6 Mb/s Movie name : build by ***селезень*** Encoded date : UTC 2016-10-26 19:06:48 Writing application : mkvmerge v8.3.0 ('Over the Horizon') 64bit Writing library : libebml v1.3.1 + libmatroska v1.4.2

    Video ID : 1 Format : AVC Format/Info : Advanced Video Codec Format profile : [email protected] Format settings, CABAC : Yes Format settings, ReFrames : 4 frames Format settings, GOP : M=1, N=12 Codec ID : V_MPEG4/ISO/AVC Duration : 1 h 37 min Bit rate mode : Variable Bit rate : 23.6 Mb/s Maximum bit rate : 32.0 Mb/s Width : 1 920 pixels Height : 1 080 pixels Display aspect ratio : 16:9 Frame rate mode : Constant Frame rate : 23.976 (23976/1000) FPS Original frame rate : 23.976 (24000/1001) FPS Color space : YUV Chroma subsampling : 4:2:0 Bit depth : 8 bits Scan type : Progressive Bits/(Pixel*Frame) : 0.475 Stream size : 16.0 GiB (83%) Title : build by ***селезень*** Language : English Default : Yes Forced : No

    Audio #1 ID : 2 Format : AC-3 Format/Info : Audio Coding 3 Mode extension : CM (complete main) Format settings, Endianness : Big Codec ID : A_AC3 Duration : 1 h 37 min Bit rate mode : Constant Bit rate : 384 kb/s Channel(s) : 6 channels Channel positions : Front: L C R, Side: L R, LFE Sampling rate : 48.0 kHz Frame rate : 31.250 FPS (1536 spf) Compression mode : Lossy Stream size : 267 MiB (1%) Title : iTunes Language : Russian Default : Yes Forced : No

    Audio #2 ID : 3 Format : DTS Format/Info : Digital Theater Systems Format profile : MA / Core Mode : 16 Format settings, Endianness : Big Codec ID : A_DTS Duration : 1 h 37 min Bit rate mode : Variable / Constant Bit rate : 4 527 kb/s / 1 509 kb/s Channel(s) : 8 channels / 6 channels Channel positions : Front: L C R, Side: L R, Back: L R, LFE / Front: L C R, Side: L R, LFE Sampling rate : 48.0 kHz Frame rate : 93.750 FPS (512 spf) Bit depth : 24 bits Compression mode : Lossless / Lossy Stream size : 3.07 GiB (16%) Title : Original Language : English Default : No Forced : No

    Text #1 ID : 4 Format : UTF-8 Codec ID : S_TEXT/UTF8 Codec ID/Info : UTF-8 Plain Text Duration : 1 h 35 min Bit rate : 127 b/s Count of elements : 1469 Stream size : 89.0 KiB (0%) Title : Full Language : Russian Default : No Forced : No

    Text #2 ID : 5 Format : UTF-8 Codec ID : S_TEXT/UTF8 Codec ID/Info : UTF-8 Plain Text Duration : 1 h 35 min Bit rate : 85 b/s Count of elements : 1578 Stream size : 59.3 KiB (0%) Title : Full Language : English Default : No Forced : No

    Text #3 ID : 6 Format : UTF-8 Codec ID : S_TEXT/UTF8 Codec ID/Info : UTF-8 Plain Text Duration : 1 h 35 min Bit rate : 92 b/s Count of elements : 1764 Stream size : 64.6 KiB (0%) Title : SDH Language : English Default : No Forced : No

    Menu 00:00:00.000 : en:00:00:00.000 00:02:35.739 : en:00:02:35.739 00:06:50.243 : en:00:06:50.243 00:10:53.194 : en:00:10:53.194 00:13:33.187 : en:00:13:33.187 00:15:25.132 : en:00:15:25.132 00:17:03.314 : en:00:17:03.314 00:19:35.466 : en:00:19:35.466 00:21:35.294 : en:00:21:35.294 00:24:58.705 : en:00:24:58.705 00:27:08.543 : en:00:27:08.543 00:30:33.206 : en:00:30:33.206 00:35:00.265 : en:00:35:00.265 00:37:52.020 : en:00:37:52.020 00:40:17.999 : en:00:40:17.999 00:41:06.672 : en:00:41:06.672 00:42:30.423 : en:00:42:30.423 00:46:03.427 : en:00:46:03.427 00:48:41.710 : en:00:48:41.710 00:50:27.858 : en:00:50:27.858 00:55:06.678 : en:00:55:06.678 00:57:05.839 : en:00:57:05.839 01:00:41.346 : en:01:00:41.346 01:04:32.952 : en:01:04:32.952 01:10:36.816 : en:01:10:36.816 01:12:28.302 : en:01:12:28.302 01:14:09.862 : en:01:14:09.862 01:18:26.493 : en:01:18:26.493 01:26:49.329 : en:01:26:49.329

    Релиз от: Автор релиза:

    krutor.org

    Скачать торрент В поисках Дори / Finding Dory (2016) BDRip 1080p от HQCLUB | D

    В поисках Дори / Finding Dory (2016) BDRip 1080p от HQCLUB

    Информация о фильме:Название: В поисках ДориОригинальное название: Finding DoryГод выхода: 2016Жанр: мультфильм, комедия, приключения, семейныйРежиссер: Эндрю Стэнтон, Энгус МакЛэйнВ ролях: Эллен ДеДженерес, Альберт Брукс, Эд О’Нил, Кэйтлин Олсон, Хайден Роуленс, Тай Бурелл, Дайан Китон, Юджин Леви, Слоун Мюррэй, Идрис Эльба

    О фильме: Дори — синяя доброжелательная рыбка-хирург, страдающая провалами в памяти. Она упорно стремится избавиться от своего недуга и найти свою семью.

    Релиз от - Автор рипа: jaka

    Выпущено: СШАПродолжительность: 01:37:03Перевод: профессиональный (полное дублирование) BD EURПеревод 2: профессиональный (полное дублирование) украинский [Студія LeDoYeN]Субтитры: русские (полные), английские (обычные, SDH, SDH-Colored) (спасибо Elheym)Главы: присутствуют, сохранены оригинальные

    Файл:Формат: MKVКачество: BDRip 1080p (источник: HDCLUB / Blu-Ray EUR / 1080р) [Оригинальный видеоряд]Видео: 1920x1080 (1.77:1), 23,976 fps, x264 core 148 r2744kMod b97ae06 ~15100 kbps avg, 0.305 bit/pixel Аудио #1: 48 kHz, AC3 Dolby Digital, 3/2 (L,C,R,l,r) + LFE ch, ~640 kbps avg (RUS)Аудио #2: 48 kHz, DTS, 3/2 (L,C,R,l,r) + LFE ch, ~1509 kbps avg (UKR) Аудио #3: 48 kHz, DTS, 3/2 (L,C,R,l,r) + LFE ch, ~1509 kbps avg (ENG) Размер: 13,0 GbСкачать: Сэмпл

    MediaInfo

    Уникальный идентификатор : 199081368402100555492441973869908665560 (0x95C5AD47D858817FBD7AF2F128F924D8) Полное имя : Finding.Dory.2016.1080p.BluRay.Rus.Ukr.Eng.-HQCLUB.mkv Формат : Matroska Версия формата : Version 2 Размер файла : 13,0 Гбайт Продолжительность : 1 ч. 37 м. Общий поток : 19,2 Мбит/сек Дата кодирования : UTC 2017-02-15 13:58:25 Программа кодирования : mkvmerge v5.2.0 ('I can't explain') built on Dec 18 2011 18:12:03 Библиотека кодирования : libebml v1.2.3 + libmatroska v1.3.0 Обложка : Yes Attachments : cover.jpg

    Видео Идентификатор : 1 Формат : AVC Формат/Информация : Advanced Video Codec Профиль формата : [email protected] Параметр CABAC формата : Да Параметр ReFrames формата : 4 кадра Идентификатор кодека : V_MPEG4/ISO/AVC Продолжительность : 1 ч. 37 м. Битрейт : 15,1 Мбит/сек Ширина : 1920 пикселей Высота : 1080 пикселей Соотношение сторон : 16:9 Режим частоты кадров : Постоянный Частота кадров : 23,976 (24000/1001) кадра/сек Цветовое пространство : YUV Субдискретизация насыщенности : 4:2:0 Битовая глубина : 8 бит Тип развёртки : Прогрессивная Бит/(Пиксели*Кадры) : 0.305 Размер потока : 10,3 Гбайт (79%) Заголовок : В поисках Дори / Finding Dory (2016) BDRip 1080p by jaka Библиотека кодирования : x264 core 148 r2744kMod b97ae06 Настройки программы : cabac=1 / ref=4 / deblock=1:-3:-2 / analyse=0x3:0x113 / me=umh / subme=10 / psy=1 / fade_compensate=0.00 / psy_rd=0.75:0.00 / mixed_ref=1 / me_range=32 / chroma_me=1 / trellis=2 / 8x8dct=1 / cqm=0 / deadzone=21,11 / fast_pskip=0 / chroma_qp_offset=-2 / threads=12 / lookahead_threads=2 / sliced_threads=0 / nr=0 / decimate=1 / interlaced=0 / bluray_compat=0 / constrained_intra=0 / bframes=9 / b_pyramid=2 / b_adapt=2 / b_bias=0 / direct=3 / weightb=1 / open_gop=0 / weightp=2 / keyint=240 / keyint_min=23 / scenecut=40 / intra_refresh=0 / rc_lookahead=80 / rc=crf / mbtree=0 / crf=18.1000 / qcomp=0.70 / qpmin=0 / qpmax=69 / qpstep=4 / vbv_maxrate=62500 / vbv_bufsize=78125 / crf_max=0.0 / nal_hrd=none / filler=0 / ip_ratio=1.40 / pb_ratio=1.30 / aq=3:0.90 Язык : English Default : Да Forced : Нет Цветовой диапазон : Limited Основные цвета : BT.709 Характеристики трансфера : BT.709 Коэффициенты матрицы : BT.709

    Аудио #1 Идентификатор : 2 Формат : AC-3 Формат/Информация : Audio Coding 3 Расширение режима : CM (complete main) Параметр Endianness формата : Big Идентификатор кодека : A_AC3 Продолжительность : 1 ч. 37 м. Вид битрейта : Постоянный Битрейт : 640 Кбит/сек Каналы : 6 каналов Расположение каналов : Front: L C R, Side: L R, LFE Частота : 48,0 КГц Частота кадров : 31,250 кадров/сек (1536 spf) Битовая глубина : 16 бит Метод сжатия : С потерями Размер потока : 444 Мбайт (3%) Заголовок : АС3 5.1 @ 640 kbps - Dub, BD EUR Язык : Russian Default : Нет Forced : Нет

    Аудио #2 Идентификатор : 3 Формат : DTS Формат/Информация : Digital Theater Systems Режим : 16 Параметр Endianness формата : Big Идентификатор кодека : A_DTS Продолжительность : 1 ч. 37 м. Вид битрейта : Постоянный Битрейт : 1509 Кбит/сек Каналы : 6 каналов Расположение каналов : Front: L C R, Side: L R, LFE Частота : 48,0 КГц Частота кадров : 93,750 кадра/сек (512 spf) Битовая глубина : 24 бит Метод сжатия : С потерями Размер потока : 1,02 Гбайт (8%) Заголовок : DTS 5.1 @ 1509 kbps - Dub, LeDoYeN Язык : Ukrainian Default : Нет Forced : Нет

    Аудио #3 Идентификатор : 4 Формат : DTS Формат/Информация : Digital Theater Systems Режим : 16 Параметр Endianness формата : Big Идентификатор кодека : A_DTS Продолжительность : 1 ч. 37 м. Вид битрейта : Постоянный Битрейт : 1509 Кбит/сек Каналы : 6 каналов Расположение каналов : Front: L C R, Side: L R, LFE Частота : 48,0 КГц Частота кадров : 93,750 кадра/сек (512 spf) Битовая глубина : 24 бит Метод сжатия : С потерями Размер потока : 1,02 Гбайт (8%) Заголовок : DTS 5.1 @ 1509 kbps - Original Язык : English Default : Нет Forced : Нет

    Текст #1 Идентификатор : 5 Формат : UTF-8 Идентификатор кодека : S_TEXT/UTF8 Идентификатор кодека/Информация : UTF-8 Plain Text Заголовок : Full Язык : Russian Default : Нет Forced : Нет

    Текст #2 Идентификатор : 6 Формат : UTF-8 Идентификатор кодека : S_TEXT/UTF8 Идентификатор кодека/Информация : UTF-8 Plain Text Заголовок : Full Язык : English Default : Нет Forced : Нет

    Текст #3 Идентификатор : 7 Формат : UTF-8 Идентификатор кодека : S_TEXT/UTF8 Идентификатор кодека/Информация : UTF-8 Plain Text Заголовок : SDH Язык : English Default : Нет Forced : Нет

    Текст #4 Идентификатор : 8 Формат : UTF-8 Идентификатор кодека : S_TEXT/UTF8 Идентификатор кодека/Информация : UTF-8 Plain Text Заголовок : SDH Colored Язык : English Default : Нет Forced : Нет

    Меню 00:00:00.000 : en: 00:02:35.738 : en: 00:06:50.243 : en: 00:10:53.194 : en: 00:13:33.187 : en: 00:15:25.132 : en: 00:17:03.313 : en: 00:19:35.465 : en: 00:21:35.293 : en: 00:24:58.705 : en: 00:27:08.543 : en: 00:30:33.206 : en: 00:35:00.264 : en: 00:37:52.019 : en: 00:40:17.998 : en: 00:41:06.672 : en: 00:42:30.422 : en: 00:46:03.427 : en: 00:48:41.710 : en: 00:50:27.857 : en: 00:55:06.678 : en: 00:57:05.838 : en: 01:00:41.345 : en: 01:04:32.952 : en: 01:10:36.815 : en: 01:12:28.301 : en: 01:14:09.861 : en: 01:18:26.493 : en: 01:26:49.328 : en:

    x264 log

    x264 [info]: frame I:788 Avg QP:14.85 size:274004 x264 [info]: frame P:37126 Avg QP:15.94 size:138752 x264 [info]: frame B:101714 Avg QP:17.94 size: 58313

    x264 [info]: consecutive B-frames: 6.1% 2.8% 15.1% 17.4% 18.4% 37.9% 1.4% 0.2% 0.4% 0.4%

    x264 [info]: ref P L0: 58.2% 10.7% 21.0% 9.3% 0.8% 0.0% x264 [info]: ref B L0: 89.2% 8.6% 2.3% x264 [info]: ref B L1: 96.2% 3.8%

    krutor.org

    Скачать торрент В поисках Дори / Finding Dory (2016) BDRip 1080p от New-Team & qqss44 | Локализованная версия

    x264 [info]: frame I:780 Avg QP:15.75 size:242577 x264 [info]: frame P:42286 Avg QP:18.51 size: 88380 x264 [info]: frame B:96560 Avg QP:19.58 size: 36109

    Общее Уникальный идентификатор : 174868930753736811258420294094837577801 (0x838E87F02698FEB8B0D448415FA4F849) Полное имя : X:ATorrentFinding.Dory.(2016).BDRip.1080p.(qqss44).mkv Формат : Matroska Версия формата : Version 2 Размер файла : 7,77 Гбайт Продолжительность : 1 ч. 37 м. Общий поток : 11,5 Мбит/сек Название фильма : Finding.Dory.(2016).BDRip.1080p.(qqss44) Дата кодирования : UTC 2016-12-04 11:28:47 Программа кодирования : mkvmerge v7.9.0 ('Birds') 64bit Библиотека кодирования : libebml v1.3.1 + libmatroska v1.4.2

    Видео Идентификатор : 1 Формат : AVC Формат/Информация : Advanced Video Codec Профиль формата : [email protected] Параметр CABAC формата : Да Параметр ReFrames формата : 4 кадра Идентификатор кодека : V_MPEG4/ISO/AVC Продолжительность : 1 ч. 37 м. Битрейт : 10,2 Мбит/сек Ширина : 1920 пикселей Высота : 1080 пикселей Соотношение сторон : 16:9 Режим частоты кадров : Постоянный Частота кадров : 23,976 (24000/1001) кадра/сек Цветовое пространство : YUV Субдискретизация насыщенности : 4:2:0 Битовая глубина : 8 бит Тип развёртки : Прогрессивная Бит/(Пиксели*Кадры) : 0.204 Размер потока : 6,90 Гбайт (89%) Заголовок : Finding.Dory.(2016).BDRip.1080p.(qqss44) Библиотека кодирования : x264 core 148 r2721kMod 72d53ab Настройки программы : cabac=1 / ref=4 / deblock=1:0:0 / analyse=0x3:0x133 / me=umh / subme=11 / psy=1 / fade_compensate=0.00 / psy_rd=1.00:0.00 / mixed_ref=1 / me_range=32 / chroma_me=1 / trellis=2 / 8x8dct=1 / cqm=0 / deadzone=21,11 / fast_pskip=0 / chroma_qp_offset=-2 / threads=12 / lookahead_threads=2 / sliced_threads=0 / nr=0 / decimate=0 / interlaced=0 / bluray_compat=0 / constrained_intra=0 / fgo=0 / bframes=9 / b_pyramid=2 / b_adapt=2 / b_bias=0 / direct=3 / weightb=1 / open_gop=0 / weightp=2 / keyint=240 / keyint_min=23 / scenecut=40 / intra_refresh=0 / rc=2pass / mbtree=0 / bitrate=10153 / ratetol=1.0 / qcomp=0.60 / qpmin=0 / qpmax=69 / qpstep=4 / cplxblur=20.0 / qblur=0.5 / ip_ratio=1.40 / pb_ratio=1.30 / aq=3:0.70 Язык : English Default : Да Forced : Нет

    Аудио #1 Идентификатор : 2 Формат : AC-3 Формат/Информация : Audio Coding 3 Расширение режима : CM (complete main) Параметр Endianness формата : Big Идентификатор кодека : A_AC3 Продолжительность : 1 ч. 37 м. Вид битрейта : Постоянный Битрейт : 640 Кбит/сек Каналы : 6 каналов Расположение каналов : Front: L C R, Side: L R, LFE Частота : 48,0 КГц Частота кадров : 31,250 кадров/сек (1536 spf) Метод сжатия : С потерями Размер потока : 444 Мбайт (6%) Заголовок : DUB | DD5.1 @ 640 kbps Язык : Russian Default : Да Forced : Нет

    Аудио #2 Идентификатор : 3 Формат : AC-3 Формат/Информация : Audio Coding 3 Расширение режима : CM (complete main) Параметр Endianness формата : Big Идентификатор кодека : A_AC3 Продолжительность : 1 ч. 37 м. Вид битрейта : Постоянный Битрейт : 640 Кбит/сек Каналы : 6 каналов Расположение каналов : Front: L C R, Side: L R, LFE Частота : 48,0 КГц Частота кадров : 31,250 кадров/сек (1536 spf) Метод сжатия : С потерями Размер потока : 444 Мбайт (6%) Заголовок : Original | DD5.1 @ 640 kbps Язык : English Default : Нет Forced : Нет

    Текст #1 Идентификатор : 4 Формат : UTF-8 Идентификатор кодека : S_TEXT/UTF8 Идентификатор кодека/Информация : UTF-8 Plain Text Продолжительность : 1 ч. 35 м. Битрейт : 127 бит/сек Count of elements : 1469 Размер потока : 89,0 Кбайт (0%) Заголовок : Full Язык : Russian Default : Нет Forced : Нет

    Текст #2 Идентификатор : 5 Формат : UTF-8 Идентификатор кодека : S_TEXT/UTF8 Идентификатор кодека/Информация : UTF-8 Plain Text Продолжительность : 1 ч. 35 м. Битрейт : 85 бит/сек Count of elements : 1578 Размер потока : 59,4 Кбайт (0%) Заголовок : Full Язык : English Default : Нет Forced : Нет

    Меню 00:00:00.000 : :Chapter 01 00:02:35.738 : :Chapter 02 00:06:50.243 : :Chapter 03 00:10:53.194 : :Chapter 04 00:13:33.187 : :Chapter 05 00:15:25.132 : :Chapter 06 00:17:03.313 : :Chapter 07 00:19:35.465 : :Chapter 08 00:21:35.293 : :Chapter 09 00:24:58.705 : :Chapter 10 00:27:08.543 : :Chapter 11 00:30:33.206 : :Chapter 12 00:35:00.264 : :Chapter 13 00:37:52.019 : :Chapter 14 00:40:17.998 : :Chapter 15 00:41:06.672 : :Chapter 16 00:42:30.422 : :Chapter 17 00:46:03.427 : :Chapter 18 00:48:41.710 : :Chapter 19 00:50:27.857 : :Chapter 20 00:55:06.678 : :Chapter 21 00:57:05.838 : :Chapter 22 01:00:41.345 : :Chapter 23 01:04:32.952 : :Chapter 24 01:10:36.815 : :Chapter 25 01:12:28.301 : :Chapter 26 01:14:09.861 : :Chapter 27 01:18:26.493 : :Chapter 28 01:26:49.328 : :Chapter 29 01:37:03.400 : :Chapter 30

    krutor.org

    Скачать торрент В поисках Дори / Finding Dory (2016) BDRemux 1080p от ExKinoRay | Локализованный видеоряд

    Информация о фильмеНазвание: В поисках ДориОригинальное название: Finding DoryГод выхода: 2016Жанр: Мультфильм, комедия, приключения, семейныйРежиссер: Эндрю Стэнтон, Энгус МакЛэйнВ ролях: Эллен ДеДженерес, Альберт Брукс, Эд О’Нил, Кэйтлин Олсон, Хайден Роуленс, Тай Буррелл, Дайан Китон, Юджин Леви, Слоун Мюррэй, Идрис Эльба

    О фильме:Дори — синяя доброжелательная рыбка-хирург, страдающая провалами в памяти. Она упорно стремится избавиться от своего недуга и найти свою семью.

    Страна: СШАСтудия: Pixar Animation Studios, Walt Disney PicturesПродолжительность: 01:37:04Перевод: Дублированный | Лицензия Blu-Ray CEE

    ФайлКодек: MPEG-4Качество: BDRemux 1080pВидео: 1920x1080, 23.6 Mbit/s, 23.976 fpsЗвук: Аудио #01: 48 kHz, AC3, 5.1, 640 Kbps | Дублированный |Аудио #02: 48 kHz, DTS-HD MA, 7.1, 4526 kbps | Оригинал |Субтитры: Русские, английские

    MI

    General Unique ID : 229626612626599883010746255934796639618 (0xACC07A17FDC3B0BC937E810D13DCAD82) Complete name : G:VideoFinding.Dory.2016.BDREMUX.1080p.ExKinoRay.mkv Format : Matroska Format version : Version 4 / Version 2 File size : 19.5 GiB Duration : 1 h 37 min Overall bit rate mode : Variable Overall bit rate : 28.8 Mb/s Movie name : Finding.Dory.2016 build by ***селезень*** Encoded date : UTC 2016-11-19 17:53:38 Writing application : mkvmerge v8.3.0 ('Over the Horizon') 64bit Writing library : libebml v1.3.1 + libmatroska v1.4.2

    Video ID : 1 Format : AVC Format/Info : Advanced Video Codec Format profile : [email protected] Format settings, CABAC : Yes Format settings, ReFrames : 4 frames Format settings, GOP : M=1, N=12 Codec ID : V_MPEG4/ISO/AVC Duration : 1 h 37 min Bit rate mode : Variable Bit rate : 23.6 Mb/s Maximum bit rate : 32.0 Mb/s Width : 1 920 pixels Height : 1 080 pixels Display aspect ratio : 16:9 Frame rate mode : Constant Frame rate : 23.976 (23976/1000) FPS Original frame rate : 23.976 (24000/1001) FPS Color space : YUV Chroma subsampling : 4:2:0 Bit depth : 8 bits Scan type : Progressive Bits/(Pixel*Frame) : 0.475 Stream size : 16.0 GiB (82%) Title : Finding.Dory.2016 build by ***селезень*** Language : English Default : Yes Forced : No

    Audio #1 ID : 2 Format : AC-3 Format/Info : Audio Coding 3 Mode extension : CM (complete main) Format settings, Endianness : Big Codec ID : A_AC3 Duration : 1 h 37 min Bit rate mode : Constant Bit rate : 640 kb/s Channel(s) : 6 channels Channel positions : Front: L C R, Side: L R, LFE Sampling rate : 48.0 kHz Frame rate : 31.250 FPS (1536 spf) Bit depth : 16 bits Compression mode : Lossy Stream size : 444 MiB (2%) Title : Dub [License] Language : Russian Default : Yes Forced : No

    Audio #2 ID : 3 Format : DTS Format/Info : Digital Theater Systems Format profile : MA / Core Mode : 16 Format settings, Endianness : Big Codec ID : A_DTS Duration : 1 h 37 min Bit rate mode : Variable / Constant Bit rate : 4 526 kb/s / 1 509 kb/s Channel(s) : 8 channels / 6 channels Channel positions : Front: L C R, Side: L R, Back: L R, LFE / Front: L C R, Side: L R, LFE Sampling rate : 48.0 kHz Frame rate : 93.750 FPS (512 spf) Bit depth : 24 bits Compression mode : Lossless / Lossy Stream size : 3.07 GiB (16%) Title : Original Language : English Default : No Forced : No

    Text #1 ID : 4 Format : UTF-8 Codec ID : S_TEXT/UTF8 Codec ID/Info : UTF-8 Plain Text Duration : 1 h 35 min Bit rate : 127 b/s Count of elements : 1469 Stream size : 89.0 KiB (0%) Title : Full Language : Russian Default : No Forced : No

    Text #2 ID : 5 Format : UTF-8 Codec ID : S_TEXT/UTF8 Codec ID/Info : UTF-8 Plain Text Duration : 1 h 35 min Bit rate : 85 b/s Count of elements : 1578 Stream size : 59.4 KiB (0%) Title : Full Language : English Default : No Forced : No

    Text #3 ID : 6 Format : UTF-8 Codec ID : S_TEXT/UTF8 Codec ID/Info : UTF-8 Plain Text Duration : 1 h 35 min Bit rate : 92 b/s Count of elements : 1764 Stream size : 64.7 KiB (0%) Title : SDH Language : English Default : No Forced : No

    Menu 00:00:00.000 : en:Prologue 00:02:35.739 : en:Lost At Sea 00:06:50.243 : en:Life With Dory 00:10:53.194 : en:Losing Dory 00:13:33.187 : en:Dory Leads 00:15:25.132 : en:Totally Sick 00:17:03.314 : en:Shipping Lanes 00:19:35.466 : en:Marine Life Institute 00:21:35.294 : en:Under Quarantine 00:24:58.705 : en:Getting In 00:27:08.543 : en:No Pipes 00:30:33.206 : en:Manifest Destiny 00:35:00.265 : en:Operation Becky 00:37:52.020 : en:Stroller Crossing 00:40:17.999 : en:Stuck 00:41:06.672 : en:Argument 00:42:30.423 : en:Touch Pool 00:46:03.427 : en:Confession 00:48:41.710 : en:Tag 00:50:27.858 : en:Childhood Home 00:55:06.678 : en:Pipe Travel 00:57:05.839 : en:Meeting Marlin 01:00:41.346 : en:Off To Cleveland 01:04:32.952 : en:All Alone 01:10:36.816 : en:Game Plan 01:12:28.302 : en:Stop That Truck 01:14:09.862 : en:Time To Go 01:18:26.493 : en:Big Finish 01:26:49.329 : en:Epilogue

    Релиз от: Автор релиза:

    krutor.org


    Смотрите также