Черная кошка 2016 торрент


Скачать торрент Черная кошка [01-10 из 16] (2016) WEB-DLRip-AVC от ExKinoRay

Чёрная кошка

Эпизод с 1 по 10 (из 16)

«Настоящая история легендарной банды»

Год выпуска: 2016Страна: РоссияПроизводство: Кинокомпания РусскоеЖанр: История, криминал

Режиссёр: Антон СиверсВ ролях: Мария Андреева, Игорь Петренко, Гела Месхи, Дмитрий Соломыкин, Константин Лавроненко, Екатерина Гусева, Александр Лобанов (III), Виталий Герасимов, Иван Щенин, Алексей Шевченков, Юрий Чурсин, Юлия Галкина, Марина Доможирова, Вера Шпак, Анна Гарнова, Илья Бледный, Наталья Карпунина, Елена Цыплакова, Семён Шемес, Игорь Скрипко, Александр Зельский, Савелий Плескач, Екатерина Травова, Иван Соловьёв (III), Дмитрий Поднозов, Денис Васильев, Денис Сухомлинов, Наталья Зингер, Яков Шамшин, Михаил Боярский, Сергей Юшкевич, Алексей Шемес, Сергей Подольный, Алла Миронова, Сергей Вершинин, Андрей Зайков, Александр Ершов, Денис Дружинин, Георгий Тополага, Юрий Цурило, Кирилл Полухин, Александр Обласов, Владимир Чуприков, Денис Ясик, Анатолий Завьялов

Перевод: Не требуетсяСубтитры: НетРеклама: Отсутствует

Описание: Жестокая, таинственная и неуловимая банда «Черная кошка» из культового советского фильма «Место встречи изменить нельзя», действительно, существовала. Более того, она была не одна.

Их называли по-разному: «банда Митина», «Красногорские оборотни», «Черная кошка». Бандиты вышли на улицы Москвы прямо с Доски почёта оборонного завода Красногорска. Это были молодые парни — спортсмены, комсомольцы, ударники труда — лучшие представители передовой советской молодежи. Но это все днем… А ночью эти «передовые» ребята совершали дерзкие налеты, грабежи и убийства, несколько лет державшие в страхе всю страну. Их видели в лицо, их знали по именам, но никак не могли поймать, потому что никому не приходило в голову искать бандитов в рядах образцово-показательных комсомольцев…

Качество: WEB-DLRip-AVCПродолжительность: 10 х 00:50:00

Формат: MKVВидео кодек: MPEG-4 AVCАудио кодек: АС3Свойства видео: 1024x576 (16:9), 25 fps, MPEG-4 AVC ~1 800 kbps avg, 0.122 bit/pixelСвойства аудио: 48 KHz, AC3, 2 ch, ~192.00 kbps avg

MediaInfo

Общее Уникальный идентификатор : 238936482166400260297127878146035755526 (0xB3C17E19CB348A52AC0CCF28DA832A06) Полное имя : D:Chernaya.Koshka.2016.WEB-DLRip(AVC).ExKinoRay1.Chernaya.Koshka.2016.WEB-DLRip(AVC).ExKinoRay.mkv Формат : Matroska Версия формата : Version 2 Размер файла : 713 Мбайт Продолжительность : 50 м. Общий поток : 1984 Кбит/сек Дата кодирования : UTC 2016-11-14 22:57:57 Программа кодирования : mkvmerge v7.8.0 ('River Man') 32bit built on Apr 3 2015 12:11:22 Библиотека кодирования : libebml v1.3.1 + libmatroska v1.4.2

Видео Идентификатор : 1 Формат : AVC Формат/Информация : Advanced Video Codec Профиль формата : [email protected] Параметр CABAC формата : Да Параметр ReFrames формата : 10 кадров Идентификатор кодека : V_MPEG4/ISO/AVC Продолжительность : 50 м. Битрейт : 1800 Кбит/сек Ширина : 1024 пикселя Высота : 576 пикселей Соотношение сторон : 16:9 Режим частоты кадров : Постоянный Частота кадров : 25,000 кадров/сек Цветовое пространство : YUV Субдискретизация насыщенности : 4:2:0 Битовая глубина : 8 бит Тип развёртки : Прогрессивная Бит/(Пиксели*Кадры) : 0.122 Размер потока : 630 Мбайт (88%) Библиотека кодирования : x264 core 146 r2538 121396c Настройки программы : cabac=1 / ref=10 / deblock=1:-3:-3 / analyse=0x3:0x133 / me=umh / subme=10 / psy=1 / psy_rd=1.00:0.03 / mixed_ref=1 / me_range=48 / chroma_me=1 / trellis=2 / 8x8dct=1 / cqm=0 / deadzone=21,11 / fast_pskip=0 / chroma_qp_offset=-3 / threads=6 / lookahead_threads=1 / sliced_threads=0 / nr=0 / decimate=0 / interlaced=0 / bluray_compat=0 / constrained_intra=0 / bframes=10 / b_pyramid=2 / b_adapt=2 / b_bias=0 / direct=3 / weightb=1 / open_gop=0 / weightp=2 / keyint=240 / keyint_min=24 / scenecut=40 / intra_refresh=0 / rc_lookahead=40 / rc=2pass / mbtree=0 / bitrate=1800 / ratetol=1.0 / qcomp=0.60 / qpmin=0 / qpmax=69 / qpstep=4 / cplxblur=20.0 / qblur=0.5 / vbv_maxrate=50000 / vbv_bufsize=62500 / nal_hrd=none / filler=0 / ip_ratio=1.40 / pb_ratio=1.30 / aq=1:1.00 Default : Да Forced : Нет

Аудио Идентификатор : 2 Формат : AC-3 Формат/Информация : Audio Coding 3 Расширение режима : CM (complete main) Параметр Endianness формата : Big Идентификатор кодека : A_AC3 Продолжительность : 50 м. Вид битрейта : Постоянный Битрейт : 192 Кбит/сек Каналы : 2 канала Расположение каналов : Front: L R Частота : 48,0 КГц Битовая глубина : 16 бит Метод сжатия : С потерями Размер потока : 69,0 Мбайт (10%) Default : Да Forced : Нет

krutor.org

Скачать торрент Черная кошка [01-14 из 16] (2016) WEB-DLRip-AVC от ExKinoRay

Чёрная кошка

Эпизод с 1 по 14 (из 16)

«Настоящая история легендарной банды»

Год выпуска: 2016Страна: РоссияПроизводство: Кинокомпания РусскоеЖанр: История, криминал

Режиссёр: Антон СиверсВ ролях: Мария Андреева, Игорь Петренко, Гела Месхи, Дмитрий Соломыкин, Константин Лавроненко, Екатерина Гусева, Александр Лобанов (III), Виталий Герасимов, Иван Щенин, Алексей Шевченков, Юрий Чурсин, Юлия Галкина, Марина Доможирова, Вера Шпак, Анна Гарнова, Илья Бледный, Наталья Карпунина, Елена Цыплакова, Семён Шемес, Игорь Скрипко, Александр Зельский, Савелий Плескач, Екатерина Травова, Иван Соловьёв (III), Дмитрий Поднозов, Денис Васильев, Денис Сухомлинов, Наталья Зингер, Яков Шамшин, Михаил Боярский, Сергей Юшкевич, Алексей Шемес, Сергей Подольный, Алла Миронова, Сергей Вершинин, Андрей Зайков, Александр Ершов, Денис Дружинин, Георгий Тополага, Юрий Цурило, Кирилл Полухин, Александр Обласов, Владимир Чуприков, Денис Ясик, Анатолий Завьялов

Перевод: Не требуетсяСубтитры: НетРеклама: Отсутствует

Описание: Жестокая, таинственная и неуловимая банда «Черная кошка» из культового советского фильма «Место встречи изменить нельзя», действительно, существовала. Более того, она была не одна.

Их называли по-разному: «банда Митина», «Красногорские оборотни», «Черная кошка». Бандиты вышли на улицы Москвы прямо с Доски почёта оборонного завода Красногорска. Это были молодые парни — спортсмены, комсомольцы, ударники труда — лучшие представители передовой советской молодежи. Но это все днем… А ночью эти «передовые» ребята совершали дерзкие налеты, грабежи и убийства, несколько лет державшие в страхе всю страну. Их видели в лицо, их знали по именам, но никак не могли поймать, потому что никому не приходило в голову искать бандитов в рядах образцово-показательных комсомольцев…

Качество: WEB-DLRip-AVCПродолжительность: 14 х 00:50:00

Формат: MKVВидео кодек: MPEG-4 AVCАудио кодек: АС3Свойства видео: 1024x576 (16:9), 25 fps, MPEG-4 AVC ~1 800 kbps avg, 0.122 bit/pixelСвойства аудио: 48 KHz, AC3, 2 ch, ~192.00 kbps avg

MediaInfo

Общее Уникальный идентификатор : 238936482166400260297127878146035755526 (0xB3C17E19CB348A52AC0CCF28DA832A06) Полное имя : D:Chernaya.Koshka.2016.WEB-DLRip(AVC).ExKinoRay1.Chernaya.Koshka.2016.WEB-DLRip(AVC).ExKinoRay.mkv Формат : Matroska Версия формата : Version 2 Размер файла : 713 Мбайт Продолжительность : 50 м. Общий поток : 1984 Кбит/сек Дата кодирования : UTC 2016-11-14 22:57:57 Программа кодирования : mkvmerge v7.8.0 ('River Man') 32bit built on Apr 3 2015 12:11:22 Библиотека кодирования : libebml v1.3.1 + libmatroska v1.4.2

Видео Идентификатор : 1 Формат : AVC Формат/Информация : Advanced Video Codec Профиль формата : [email protected] Параметр CABAC формата : Да Параметр ReFrames формата : 10 кадров Идентификатор кодека : V_MPEG4/ISO/AVC Продолжительность : 50 м. Битрейт : 1800 Кбит/сек Ширина : 1024 пикселя Высота : 576 пикселей Соотношение сторон : 16:9 Режим частоты кадров : Постоянный Частота кадров : 25,000 кадров/сек Цветовое пространство : YUV Субдискретизация насыщенности : 4:2:0 Битовая глубина : 8 бит Тип развёртки : Прогрессивная Бит/(Пиксели*Кадры) : 0.122 Размер потока : 630 Мбайт (88%) Библиотека кодирования : x264 core 146 r2538 121396c Настройки программы : cabac=1 / ref=10 / deblock=1:-3:-3 / analyse=0x3:0x133 / me=umh / subme=10 / psy=1 / psy_rd=1.00:0.03 / mixed_ref=1 / me_range=48 / chroma_me=1 / trellis=2 / 8x8dct=1 / cqm=0 / deadzone=21,11 / fast_pskip=0 / chroma_qp_offset=-3 / threads=6 / lookahead_threads=1 / sliced_threads=0 / nr=0 / decimate=0 / interlaced=0 / bluray_compat=0 / constrained_intra=0 / bframes=10 / b_pyramid=2 / b_adapt=2 / b_bias=0 / direct=3 / weightb=1 / open_gop=0 / weightp=2 / keyint=240 / keyint_min=24 / scenecut=40 / intra_refresh=0 / rc_lookahead=40 / rc=2pass / mbtree=0 / bitrate=1800 / ratetol=1.0 / qcomp=0.60 / qpmin=0 / qpmax=69 / qpstep=4 / cplxblur=20.0 / qblur=0.5 / vbv_maxrate=50000 / vbv_bufsize=62500 / nal_hrd=none / filler=0 / ip_ratio=1.40 / pb_ratio=1.30 / aq=1:1.00 Default : Да Forced : Нет

Аудио Идентификатор : 2 Формат : AC-3 Формат/Информация : Audio Coding 3 Расширение режима : CM (complete main) Параметр Endianness формата : Big Идентификатор кодека : A_AC3 Продолжительность : 50 м. Вид битрейта : Постоянный Битрейт : 192 Кбит/сек Каналы : 2 канала Расположение каналов : Front: L R Частота : 48,0 КГц Битовая глубина : 16 бит Метод сжатия : С потерями Размер потока : 69,0 Мбайт (10%) Default : Да Forced : Нет

krutor.org

Скачать торрент Черная кошка [01-12 из 16] (2016) WEB-DLRip-AVC от ExKinoRay

Чёрная кошка

Эпизод с 1 по 12 (из 16)

«Настоящая история легендарной банды»

Год выпуска: 2016Страна: РоссияПроизводство: Кинокомпания РусскоеЖанр: История, криминал

Режиссёр: Антон СиверсВ ролях: Мария Андреева, Игорь Петренко, Гела Месхи, Дмитрий Соломыкин, Константин Лавроненко, Екатерина Гусева, Александр Лобанов (III), Виталий Герасимов, Иван Щенин, Алексей Шевченков, Юрий Чурсин, Юлия Галкина, Марина Доможирова, Вера Шпак, Анна Гарнова, Илья Бледный, Наталья Карпунина, Елена Цыплакова, Семён Шемес, Игорь Скрипко, Александр Зельский, Савелий Плескач, Екатерина Травова, Иван Соловьёв (III), Дмитрий Поднозов, Денис Васильев, Денис Сухомлинов, Наталья Зингер, Яков Шамшин, Михаил Боярский, Сергей Юшкевич, Алексей Шемес, Сергей Подольный, Алла Миронова, Сергей Вершинин, Андрей Зайков, Александр Ершов, Денис Дружинин, Георгий Тополага, Юрий Цурило, Кирилл Полухин, Александр Обласов, Владимир Чуприков, Денис Ясик, Анатолий Завьялов

Перевод: Не требуетсяСубтитры: НетРеклама: Отсутствует

Описание: Жестокая, таинственная и неуловимая банда «Черная кошка» из культового советского фильма «Место встречи изменить нельзя», действительно, существовала. Более того, она была не одна.

Их называли по-разному: «банда Митина», «Красногорские оборотни», «Черная кошка». Бандиты вышли на улицы Москвы прямо с Доски почёта оборонного завода Красногорска. Это были молодые парни — спортсмены, комсомольцы, ударники труда — лучшие представители передовой советской молодежи. Но это все днем… А ночью эти «передовые» ребята совершали дерзкие налеты, грабежи и убийства, несколько лет державшие в страхе всю страну. Их видели в лицо, их знали по именам, но никак не могли поймать, потому что никому не приходило в голову искать бандитов в рядах образцово-показательных комсомольцев…

Качество: WEB-DLRip-AVCПродолжительность: 12 х 00:50:00

Формат: MKVВидео кодек: MPEG-4 AVCАудио кодек: АС3Свойства видео: 1024x576 (16:9), 25 fps, MPEG-4 AVC ~1 800 kbps avg, 0.122 bit/pixelСвойства аудио: 48 KHz, AC3, 2 ch, ~192.00 kbps avg

MediaInfo

Общее Уникальный идентификатор : 238936482166400260297127878146035755526 (0xB3C17E19CB348A52AC0CCF28DA832A06) Полное имя : D:Chernaya.Koshka.2016.WEB-DLRip(AVC).ExKinoRay1.Chernaya.Koshka.2016.WEB-DLRip(AVC).ExKinoRay.mkv Формат : Matroska Версия формата : Version 2 Размер файла : 713 Мбайт Продолжительность : 50 м. Общий поток : 1984 Кбит/сек Дата кодирования : UTC 2016-11-14 22:57:57 Программа кодирования : mkvmerge v7.8.0 ('River Man') 32bit built on Apr 3 2015 12:11:22 Библиотека кодирования : libebml v1.3.1 + libmatroska v1.4.2

Видео Идентификатор : 1 Формат : AVC Формат/Информация : Advanced Video Codec Профиль формата : [email protected] Параметр CABAC формата : Да Параметр ReFrames формата : 10 кадров Идентификатор кодека : V_MPEG4/ISO/AVC Продолжительность : 50 м. Битрейт : 1800 Кбит/сек Ширина : 1024 пикселя Высота : 576 пикселей Соотношение сторон : 16:9 Режим частоты кадров : Постоянный Частота кадров : 25,000 кадров/сек Цветовое пространство : YUV Субдискретизация насыщенности : 4:2:0 Битовая глубина : 8 бит Тип развёртки : Прогрессивная Бит/(Пиксели*Кадры) : 0.122 Размер потока : 630 Мбайт (88%) Библиотека кодирования : x264 core 146 r2538 121396c Настройки программы : cabac=1 / ref=10 / deblock=1:-3:-3 / analyse=0x3:0x133 / me=umh / subme=10 / psy=1 / psy_rd=1.00:0.03 / mixed_ref=1 / me_range=48 / chroma_me=1 / trellis=2 / 8x8dct=1 / cqm=0 / deadzone=21,11 / fast_pskip=0 / chroma_qp_offset=-3 / threads=6 / lookahead_threads=1 / sliced_threads=0 / nr=0 / decimate=0 / interlaced=0 / bluray_compat=0 / constrained_intra=0 / bframes=10 / b_pyramid=2 / b_adapt=2 / b_bias=0 / direct=3 / weightb=1 / open_gop=0 / weightp=2 / keyint=240 / keyint_min=24 / scenecut=40 / intra_refresh=0 / rc_lookahead=40 / rc=2pass / mbtree=0 / bitrate=1800 / ratetol=1.0 / qcomp=0.60 / qpmin=0 / qpmax=69 / qpstep=4 / cplxblur=20.0 / qblur=0.5 / vbv_maxrate=50000 / vbv_bufsize=62500 / nal_hrd=none / filler=0 / ip_ratio=1.40 / pb_ratio=1.30 / aq=1:1.00 Default : Да Forced : Нет

Аудио Идентификатор : 2 Формат : AC-3 Формат/Информация : Audio Coding 3 Расширение режима : CM (complete main) Параметр Endianness формата : Big Идентификатор кодека : A_AC3 Продолжительность : 50 м. Вид битрейта : Постоянный Битрейт : 192 Кбит/сек Каналы : 2 канала Расположение каналов : Front: L R Частота : 48,0 КГц Битовая глубина : 16 бит Метод сжатия : С потерями Размер потока : 69,0 Мбайт (10%) Default : Да Forced : Нет

krutor.org

Скачать торрент Черная кошка [01-16 из 16] (2016) WEB-DLRip-AVC от ExKinoRay :: Mrutor.org

Чёрная кошка

Эпизод с 1 по 16 (из 16)

«Настоящая история легендарной банды»

Год выпуска: 2016Страна: РоссияПроизводство: Кинокомпания РусскоеЖанр: История, криминал

Режиссёр: Антон СиверсВ ролях: Мария Андреева, Игорь Петренко, Гела Месхи, Дмитрий Соломыкин, Константин Лавроненко, Екатерина Гусева, Александр Лобанов (III), Виталий Герасимов, Иван Щенин, Алексей Шевченков, Юрий Чурсин, Юлия Галкина, Марина Доможирова, Вера Шпак, Анна Гарнова, Илья Бледный, Наталья Карпунина, Елена Цыплакова, Семён Шемес, Игорь Скрипко, Александр Зельский, Савелий Плескач, Екатерина Травова, Иван Соловьёв (III), Дмитрий Поднозов, Денис Васильев, Денис Сухомлинов, Наталья Зингер, Яков Шамшин, Михаил Боярский, Сергей Юшкевич, Алексей Шемес, Сергей Подольный, Алла Миронова, Сергей Вершинин, Андрей Зайков, Александр Ершов, Денис Дружинин, Георгий Тополага, Юрий Цурило, Кирилл Полухин, Александр Обласов, Владимир Чуприков, Денис Ясик, Анатолий Завьялов

Перевод: Не требуетсяСубтитры: НетРеклама: Отсутствует

Описание: Жестокая, таинственная и неуловимая банда «Черная кошка» из культового советского фильма «Место встречи изменить нельзя», действительно, существовала. Более того, она была не одна.

Их называли по-разному: «банда Митина», «Красногорские оборотни», «Черная кошка». Бандиты вышли на улицы Москвы прямо с Доски почёта оборонного завода Красногорска. Это были молодые парни — спортсмены, комсомольцы, ударники труда — лучшие представители передовой советской молодежи. Но это все днем… А ночью эти «передовые» ребята совершали дерзкие налеты, грабежи и убийства, несколько лет державшие в страхе всю страну. Их видели в лицо, их знали по именам, но никак не могли поймать, потому что никому не приходило в голову искать бандитов в рядах образцово-показательных комсомольцев…

Качество: WEB-DLRip-AVCПродолжительность: 16 х 00:50:00

Формат: MKVВидео кодек: MPEG-4 AVCАудио кодек: АС3Свойства видео: 1024x576 (16:9), 25 fps, MPEG-4 AVC ~1 800 kbps avg, 0.122 bit/pixelСвойства аудио: 48 KHz, AC3, 2 ch, ~192.00 kbps avg

MediaInfo

Общее Уникальный идентификатор : 238936482166400260297127878146035755526 (0xB3C17E19CB348A52AC0CCF28DA832A06) Полное имя : D:Chernaya.Koshka.2016.WEB-DLRip(AVC).ExKinoRay1.Chernaya.Koshka.2016.WEB-DLRip(AVC).ExKinoRay.mkv Формат : Matroska Версия формата : Version 2 Размер файла : 713 Мбайт Продолжительность : 50 м. Общий поток : 1984 Кбит/сек Дата кодирования : UTC 2016-11-14 22:57:57 Программа кодирования : mkvmerge v7.8.0 ('River Man') 32bit built on Apr 3 2015 12:11:22 Библиотека кодирования : libebml v1.3.1 + libmatroska v1.4.2

Видео Идентификатор : 1 Формат : AVC Формат/Информация : Advanced Video Codec Профиль формата : [email protected] Параметр CABAC формата : Да Параметр ReFrames формата : 10 кадров Идентификатор кодека : V_MPEG4/ISO/AVC Продолжительность : 50 м. Битрейт : 1800 Кбит/сек Ширина : 1024 пикселя Высота : 576 пикселей Соотношение сторон : 16:9 Режим частоты кадров : Постоянный Частота кадров : 25,000 кадров/сек Цветовое пространство : YUV Субдискретизация насыщенности : 4:2:0 Битовая глубина : 8 бит Тип развёртки : Прогрессивная Бит/(Пиксели*Кадры) : 0.122 Размер потока : 630 Мбайт (88%) Библиотека кодирования : x264 core 146 r2538 121396c Настройки программы : cabac=1 / ref=10 / deblock=1:-3:-3 / analyse=0x3:0x133 / me=umh / subme=10 / psy=1 / psy_rd=1.00:0.03 / mixed_ref=1 / me_range=48 / chroma_me=1 / trellis=2 / 8x8dct=1 / cqm=0 / deadzone=21,11 / fast_pskip=0 / chroma_qp_offset=-3 / threads=6 / lookahead_threads=1 / sliced_threads=0 / nr=0 / decimate=0 / interlaced=0 / bluray_compat=0 / constrained_intra=0 / bframes=10 / b_pyramid=2 / b_adapt=2 / b_bias=0 / direct=3 / weightb=1 / open_gop=0 / weightp=2 / keyint=240 / keyint_min=24 / scenecut=40 / intra_refresh=0 / rc_lookahead=40 / rc=2pass / mbtree=0 / bitrate=1800 / ratetol=1.0 / qcomp=0.60 / qpmin=0 / qpmax=69 / qpstep=4 / cplxblur=20.0 / qblur=0.5 / vbv_maxrate=50000 / vbv_bufsize=62500 / nal_hrd=none / filler=0 / ip_ratio=1.40 / pb_ratio=1.30 / aq=1:1.00 Default : Да Forced : Нет

Аудио Идентификатор : 2 Формат : AC-3 Формат/Информация : Audio Coding 3 Расширение режима : CM (complete main) Параметр Endianness формата : Big Идентификатор кодека : A_AC3 Продолжительность : 50 м. Вид битрейта : Постоянный Битрейт : 192 Кбит/сек Каналы : 2 канала Расположение каналов : Front: L R Частота : 48,0 КГц Битовая глубина : 16 бит Метод сжатия : С потерями Размер потока : 69,0 Мбайт (10%) Default : Да Forced : Нет

mrutor.org

Скачать торрент Черная кошка [01-02 из 16] (2016) WEB-DLRip-AVC от ExKinoRay :: Mrutor.org

Чёрная кошка

Эпизод с 1 по 2 (из 16)

«Настоящая история легендарной банды»

Год выпуска: 2016Страна: РоссияПроизводство: Кинокомпания РусскоеЖанр: История, криминал

Режиссёр: Антон СиверсВ ролях: Мария Андреева, Игорь Петренко, Гела Месхи, Дмитрий Соломыкин, Константин Лавроненко, Екатерина Гусева, Александр Лобанов (III), Виталий Герасимов, Иван Щенин, Алексей Шевченков, Юрий Чурсин, Юлия Галкина, Марина Доможирова, Вера Шпак, Анна Гарнова, Илья Бледный, Наталья Карпунина, Елена Цыплакова, Семён Шемес, Игорь Скрипко, Александр Зельский, Савелий Плескач, Екатерина Травова, Иван Соловьёв (III), Дмитрий Поднозов, Денис Васильев, Денис Сухомлинов, Наталья Зингер, Яков Шамшин, Михаил Боярский, Сергей Юшкевич, Алексей Шемес, Сергей Подольный, Алла Миронова, Сергей Вершинин, Андрей Зайков, Александр Ершов, Денис Дружинин, Георгий Тополага, Юрий Цурило, Кирилл Полухин, Александр Обласов, Владимир Чуприков, Денис Ясик, Анатолий Завьялов

Перевод: Не требуетсяСубтитры: НетРеклама: Отсутствует

Описание: Жестокая, таинственная и неуловимая банда «Черная кошка» из культового советского фильма «Место встречи изменить нельзя», действительно, существовала. Более того, она была не одна.

Их называли по-разному: «банда Митина», «Красногорские оборотни», «Черная кошка». Бандиты вышли на улицы Москвы прямо с Доски почёта оборонного завода Красногорска. Это были молодые парни — спортсмены, комсомольцы, ударники труда — лучшие представители передовой советской молодежи. Но это все днем… А ночью эти «передовые» ребята совершали дерзкие налеты, грабежи и убийства, несколько лет державшие в страхе всю страну. Их видели в лицо, их знали по именам, но никак не могли поймать, потому что никому не приходило в голову искать бандитов в рядах образцово-показательных комсомольцев…

Качество: WEB-DLRip-AVCПродолжительность: по ~ 00:50:00

Формат: MKVВидео кодек: MPEG-4 AVCАудио кодек: АС3Свойства видео: 1024x576 (16:9), 25 fps, MPEG-4 AVC ~1 800 kbps avg, 0.122 bit/pixelСвойства аудио: 48 KHz, AC3, 2 ch, ~192.00 kbps avg

MediaInfo

Общее Уникальный идентификатор : 238936482166400260297127878146035755526 (0xB3C17E19CB348A52AC0CCF28DA832A06) Полное имя : D:Chernaya.Koshka.2016.WEB-DLRip(AVC).ExKinoRay1.Chernaya.Koshka.2016.WEB-DLRip(AVC).ExKinoRay.mkv Формат : Matroska Версия формата : Version 2 Размер файла : 713 Мбайт Продолжительность : 50 м. Общий поток : 1984 Кбит/сек Дата кодирования : UTC 2016-11-14 22:57:57 Программа кодирования : mkvmerge v7.8.0 ('River Man') 32bit built on Apr 3 2015 12:11:22 Библиотека кодирования : libebml v1.3.1 + libmatroska v1.4.2

Видео Идентификатор : 1 Формат : AVC Формат/Информация : Advanced Video Codec Профиль формата : [email protected] Параметр CABAC формата : Да Параметр ReFrames формата : 10 кадров Идентификатор кодека : V_MPEG4/ISO/AVC Продолжительность : 50 м. Битрейт : 1800 Кбит/сек Ширина : 1024 пикселя Высота : 576 пикселей Соотношение сторон : 16:9 Режим частоты кадров : Постоянный Частота кадров : 25,000 кадров/сек Цветовое пространство : YUV Субдискретизация насыщенности : 4:2:0 Битовая глубина : 8 бит Тип развёртки : Прогрессивная Бит/(Пиксели*Кадры) : 0.122 Размер потока : 630 Мбайт (88%) Библиотека кодирования : x264 core 146 r2538 121396c Настройки программы : cabac=1 / ref=10 / deblock=1:-3:-3 / analyse=0x3:0x133 / me=umh / subme=10 / psy=1 / psy_rd=1.00:0.03 / mixed_ref=1 / me_range=48 / chroma_me=1 / trellis=2 / 8x8dct=1 / cqm=0 / deadzone=21,11 / fast_pskip=0 / chroma_qp_offset=-3 / threads=6 / lookahead_threads=1 / sliced_threads=0 / nr=0 / decimate=0 / interlaced=0 / bluray_compat=0 / constrained_intra=0 / bframes=10 / b_pyramid=2 / b_adapt=2 / b_bias=0 / direct=3 / weightb=1 / open_gop=0 / weightp=2 / keyint=240 / keyint_min=24 / scenecut=40 / intra_refresh=0 / rc_lookahead=40 / rc=2pass / mbtree=0 / bitrate=1800 / ratetol=1.0 / qcomp=0.60 / qpmin=0 / qpmax=69 / qpstep=4 / cplxblur=20.0 / qblur=0.5 / vbv_maxrate=50000 / vbv_bufsize=62500 / nal_hrd=none / filler=0 / ip_ratio=1.40 / pb_ratio=1.30 / aq=1:1.00 Default : Да Forced : Нет

Аудио Идентификатор : 2 Формат : AC-3 Формат/Информация : Audio Coding 3 Расширение режима : CM (complete main) Параметр Endianness формата : Big Идентификатор кодека : A_AC3 Продолжительность : 50 м. Вид битрейта : Постоянный Битрейт : 192 Кбит/сек Каналы : 2 канала Расположение каналов : Front: L R Частота : 48,0 КГц Битовая глубина : 16 бит Метод сжатия : С потерями Размер потока : 69,0 Мбайт (10%) Default : Да Forced : Нет

mrutor.org

Скачать торрент Черная кошка [01-08 из 16] (2016) WEB-DLRip-AVC от ExKinoRay

Чёрная кошка

Эпизод с 1 по 8 (из 16)

«Настоящая история легендарной банды»

Год выпуска: 2016Страна: РоссияПроизводство: Кинокомпания РусскоеЖанр: История, криминал

Режиссёр: Антон СиверсВ ролях: Мария Андреева, Игорь Петренко, Гела Месхи, Дмитрий Соломыкин, Константин Лавроненко, Екатерина Гусева, Александр Лобанов (III), Виталий Герасимов, Иван Щенин, Алексей Шевченков, Юрий Чурсин, Юлия Галкина, Марина Доможирова, Вера Шпак, Анна Гарнова, Илья Бледный, Наталья Карпунина, Елена Цыплакова, Семён Шемес, Игорь Скрипко, Александр Зельский, Савелий Плескач, Екатерина Травова, Иван Соловьёв (III), Дмитрий Поднозов, Денис Васильев, Денис Сухомлинов, Наталья Зингер, Яков Шамшин, Михаил Боярский, Сергей Юшкевич, Алексей Шемес, Сергей Подольный, Алла Миронова, Сергей Вершинин, Андрей Зайков, Александр Ершов, Денис Дружинин, Георгий Тополага, Юрий Цурило, Кирилл Полухин, Александр Обласов, Владимир Чуприков, Денис Ясик, Анатолий Завьялов

Перевод: Не требуетсяСубтитры: НетРеклама: Отсутствует

Описание: Жестокая, таинственная и неуловимая банда «Черная кошка» из культового советского фильма «Место встречи изменить нельзя», действительно, существовала. Более того, она была не одна.

Их называли по-разному: «банда Митина», «Красногорские оборотни», «Черная кошка». Бандиты вышли на улицы Москвы прямо с Доски почёта оборонного завода Красногорска. Это были молодые парни — спортсмены, комсомольцы, ударники труда — лучшие представители передовой советской молодежи. Но это все днем… А ночью эти «передовые» ребята совершали дерзкие налеты, грабежи и убийства, несколько лет державшие в страхе всю страну. Их видели в лицо, их знали по именам, но никак не могли поймать, потому что никому не приходило в голову искать бандитов в рядах образцово-показательных комсомольцев…

Качество: WEB-DLRip-AVCПродолжительность: 8 х 00:50:00

Формат: MKVВидео кодек: MPEG-4 AVCАудио кодек: АС3Свойства видео: 1024x576 (16:9), 25 fps, MPEG-4 AVC ~1 800 kbps avg, 0.122 bit/pixelСвойства аудио: 48 KHz, AC3, 2 ch, ~192.00 kbps avg

MediaInfo

Общее Уникальный идентификатор : 238936482166400260297127878146035755526 (0xB3C17E19CB348A52AC0CCF28DA832A06) Полное имя : D:Chernaya.Koshka.2016.WEB-DLRip(AVC).ExKinoRay1.Chernaya.Koshka.2016.WEB-DLRip(AVC).ExKinoRay.mkv Формат : Matroska Версия формата : Version 2 Размер файла : 713 Мбайт Продолжительность : 50 м. Общий поток : 1984 Кбит/сек Дата кодирования : UTC 2016-11-14 22:57:57 Программа кодирования : mkvmerge v7.8.0 ('River Man') 32bit built on Apr 3 2015 12:11:22 Библиотека кодирования : libebml v1.3.1 + libmatroska v1.4.2

Видео Идентификатор : 1 Формат : AVC Формат/Информация : Advanced Video Codec Профиль формата : [email protected] Параметр CABAC формата : Да Параметр ReFrames формата : 10 кадров Идентификатор кодека : V_MPEG4/ISO/AVC Продолжительность : 50 м. Битрейт : 1800 Кбит/сек Ширина : 1024 пикселя Высота : 576 пикселей Соотношение сторон : 16:9 Режим частоты кадров : Постоянный Частота кадров : 25,000 кадров/сек Цветовое пространство : YUV Субдискретизация насыщенности : 4:2:0 Битовая глубина : 8 бит Тип развёртки : Прогрессивная Бит/(Пиксели*Кадры) : 0.122 Размер потока : 630 Мбайт (88%) Библиотека кодирования : x264 core 146 r2538 121396c Настройки программы : cabac=1 / ref=10 / deblock=1:-3:-3 / analyse=0x3:0x133 / me=umh / subme=10 / psy=1 / psy_rd=1.00:0.03 / mixed_ref=1 / me_range=48 / chroma_me=1 / trellis=2 / 8x8dct=1 / cqm=0 / deadzone=21,11 / fast_pskip=0 / chroma_qp_offset=-3 / threads=6 / lookahead_threads=1 / sliced_threads=0 / nr=0 / decimate=0 / interlaced=0 / bluray_compat=0 / constrained_intra=0 / bframes=10 / b_pyramid=2 / b_adapt=2 / b_bias=0 / direct=3 / weightb=1 / open_gop=0 / weightp=2 / keyint=240 / keyint_min=24 / scenecut=40 / intra_refresh=0 / rc_lookahead=40 / rc=2pass / mbtree=0 / bitrate=1800 / ratetol=1.0 / qcomp=0.60 / qpmin=0 / qpmax=69 / qpstep=4 / cplxblur=20.0 / qblur=0.5 / vbv_maxrate=50000 / vbv_bufsize=62500 / nal_hrd=none / filler=0 / ip_ratio=1.40 / pb_ratio=1.30 / aq=1:1.00 Default : Да Forced : Нет

Аудио Идентификатор : 2 Формат : AC-3 Формат/Информация : Audio Coding 3 Расширение режима : CM (complete main) Параметр Endianness формата : Big Идентификатор кодека : A_AC3 Продолжительность : 50 м. Вид битрейта : Постоянный Битрейт : 192 Кбит/сек Каналы : 2 канала Расположение каналов : Front: L R Частота : 48,0 КГц Битовая глубина : 16 бит Метод сжатия : С потерями Размер потока : 69,0 Мбайт (10%) Default : Да Forced : Нет

krutor.org

Скачать торрент Черная кошка [01-14 из 16] (2016) WEB-DLRip-AVC от ExKinoRay :: Mrutor.org

Чёрная кошка

Эпизод с 1 по 14 (из 16)

«Настоящая история легендарной банды»

Год выпуска: 2016Страна: РоссияПроизводство: Кинокомпания РусскоеЖанр: История, криминал

Режиссёр: Антон СиверсВ ролях: Мария Андреева, Игорь Петренко, Гела Месхи, Дмитрий Соломыкин, Константин Лавроненко, Екатерина Гусева, Александр Лобанов (III), Виталий Герасимов, Иван Щенин, Алексей Шевченков, Юрий Чурсин, Юлия Галкина, Марина Доможирова, Вера Шпак, Анна Гарнова, Илья Бледный, Наталья Карпунина, Елена Цыплакова, Семён Шемес, Игорь Скрипко, Александр Зельский, Савелий Плескач, Екатерина Травова, Иван Соловьёв (III), Дмитрий Поднозов, Денис Васильев, Денис Сухомлинов, Наталья Зингер, Яков Шамшин, Михаил Боярский, Сергей Юшкевич, Алексей Шемес, Сергей Подольный, Алла Миронова, Сергей Вершинин, Андрей Зайков, Александр Ершов, Денис Дружинин, Георгий Тополага, Юрий Цурило, Кирилл Полухин, Александр Обласов, Владимир Чуприков, Денис Ясик, Анатолий Завьялов

Перевод: Не требуетсяСубтитры: НетРеклама: Отсутствует

Описание: Жестокая, таинственная и неуловимая банда «Черная кошка» из культового советского фильма «Место встречи изменить нельзя», действительно, существовала. Более того, она была не одна.

Их называли по-разному: «банда Митина», «Красногорские оборотни», «Черная кошка». Бандиты вышли на улицы Москвы прямо с Доски почёта оборонного завода Красногорска. Это были молодые парни — спортсмены, комсомольцы, ударники труда — лучшие представители передовой советской молодежи. Но это все днем… А ночью эти «передовые» ребята совершали дерзкие налеты, грабежи и убийства, несколько лет державшие в страхе всю страну. Их видели в лицо, их знали по именам, но никак не могли поймать, потому что никому не приходило в голову искать бандитов в рядах образцово-показательных комсомольцев…

Качество: WEB-DLRip-AVCПродолжительность: 14 х 00:50:00

Формат: MKVВидео кодек: MPEG-4 AVCАудио кодек: АС3Свойства видео: 1024x576 (16:9), 25 fps, MPEG-4 AVC ~1 800 kbps avg, 0.122 bit/pixelСвойства аудио: 48 KHz, AC3, 2 ch, ~192.00 kbps avg

MediaInfo

Общее Уникальный идентификатор : 238936482166400260297127878146035755526 (0xB3C17E19CB348A52AC0CCF28DA832A06) Полное имя : D:Chernaya.Koshka.2016.WEB-DLRip(AVC).ExKinoRay1.Chernaya.Koshka.2016.WEB-DLRip(AVC).ExKinoRay.mkv Формат : Matroska Версия формата : Version 2 Размер файла : 713 Мбайт Продолжительность : 50 м. Общий поток : 1984 Кбит/сек Дата кодирования : UTC 2016-11-14 22:57:57 Программа кодирования : mkvmerge v7.8.0 ('River Man') 32bit built on Apr 3 2015 12:11:22 Библиотека кодирования : libebml v1.3.1 + libmatroska v1.4.2

Видео Идентификатор : 1 Формат : AVC Формат/Информация : Advanced Video Codec Профиль формата : [email protected] Параметр CABAC формата : Да Параметр ReFrames формата : 10 кадров Идентификатор кодека : V_MPEG4/ISO/AVC Продолжительность : 50 м. Битрейт : 1800 Кбит/сек Ширина : 1024 пикселя Высота : 576 пикселей Соотношение сторон : 16:9 Режим частоты кадров : Постоянный Частота кадров : 25,000 кадров/сек Цветовое пространство : YUV Субдискретизация насыщенности : 4:2:0 Битовая глубина : 8 бит Тип развёртки : Прогрессивная Бит/(Пиксели*Кадры) : 0.122 Размер потока : 630 Мбайт (88%) Библиотека кодирования : x264 core 146 r2538 121396c Настройки программы : cabac=1 / ref=10 / deblock=1:-3:-3 / analyse=0x3:0x133 / me=umh / subme=10 / psy=1 / psy_rd=1.00:0.03 / mixed_ref=1 / me_range=48 / chroma_me=1 / trellis=2 / 8x8dct=1 / cqm=0 / deadzone=21,11 / fast_pskip=0 / chroma_qp_offset=-3 / threads=6 / lookahead_threads=1 / sliced_threads=0 / nr=0 / decimate=0 / interlaced=0 / bluray_compat=0 / constrained_intra=0 / bframes=10 / b_pyramid=2 / b_adapt=2 / b_bias=0 / direct=3 / weightb=1 / open_gop=0 / weightp=2 / keyint=240 / keyint_min=24 / scenecut=40 / intra_refresh=0 / rc_lookahead=40 / rc=2pass / mbtree=0 / bitrate=1800 / ratetol=1.0 / qcomp=0.60 / qpmin=0 / qpmax=69 / qpstep=4 / cplxblur=20.0 / qblur=0.5 / vbv_maxrate=50000 / vbv_bufsize=62500 / nal_hrd=none / filler=0 / ip_ratio=1.40 / pb_ratio=1.30 / aq=1:1.00 Default : Да Forced : Нет

Аудио Идентификатор : 2 Формат : AC-3 Формат/Информация : Audio Coding 3 Расширение режима : CM (complete main) Параметр Endianness формата : Big Идентификатор кодека : A_AC3 Продолжительность : 50 м. Вид битрейта : Постоянный Битрейт : 192 Кбит/сек Каналы : 2 канала Расположение каналов : Front: L R Частота : 48,0 КГц Битовая глубина : 16 бит Метод сжатия : С потерями Размер потока : 69,0 Мбайт (10%) Default : Да Forced : Нет

mrutor.org


Смотрите также