Торрент черная кошка


Скачать торрент Черная кошка [01-16 из 16] (2016) WEB-DLRip от GeneralFilm

Информация о фильмеОригинальное название: Черная кошкаГод выпуска: 2016Жанр: История, криминалРежиссер: Антон СиверсВ ролях: Мария Андреева, Игорь Петренко, Гела Месхи, Дмитрий Соломыкин, Константин Лавроненко, Екатерина Гусева, Александр Лобанов (III), Виталий Герасимов, Иван Щенин, Алексей Шевченков, Юрий Чурсин, Юлия Галкина, Марина Доможирова, Вера Шпак, Анна Гарнова, Илья Бледный, Наталья Карпунина, Елена Цыплакова, Семён Шемес, Игорь Скрипко, Александр Зельский, Савелий Плескач, Екатерина Травова, Иван Соловьёв (III), Дмитрий Поднозов, Денис Васильев, Денис Сухомлинов, Наталья Зингер, Яков Шамшин, Михаил Боярский, Сергей Юшкевич, Алексей Шемес, Сергей Подольный, Алла Миронова, Сергей Вершинин, Андрей Зайков, Александр Ершов, Денис Дружинин, Георгий Тополага, Юрий Цурило, Кирилл Полухин, Александр Обласов, Владимир Чуприков, Денис Ясик, Анатолий Завьялов

О фильме: Жестокая, таинственная и неуловимая банда «Черная кошка» из культового советского фильма «Место встречи изменить нельзя», действительно, существовала. Более того, она была не одна. Их называли по-разному: «банда Митина», «Красногорские оборотни», «Черная кошка». Бандиты вышли на улицы Москвы прямо с Доски почёта оборонного завода Красногорска. Это были молодые парни — спортсмены, комсомольцы, ударники труда — лучшие представители передовой советской молодежи. Но это все днем… А ночью эти «передовые» ребята совершали дерзкие налеты, грабежи и убийства, несколько лет державшие в страхе всю страну. Их видели в лицо, их знали по именам, но никак не могли поймать, потому что никому не приходило в голову искать бандитов в рядах образцово-показательных комсомольцев

Страна: РоссияСтудия: Кинокомпания «Русское»Продолжительность: 16 x ~ 00:50:00Перевод: Не требуется

ФайлФормат: aviКачество: HDTVRipВидео: XviD build 73, 656x368 (16:9), 25.000 fps, ~ 950 Kbps (~ 0.155 bit/pixel)Звук: 48.0 kHz, MP3, 2/0 ch, 128 kbpsСубтитры: нет

МедиаИнфо

General Complete name : Chernaja.Koshka.2016.XviD.WEB-DLRip.GeneralFilmSerija.02.avi Format : AVI Format/Info : Audio Video Interleave File size : 372 MiB Duration : 47mn 56s Overall bit rate : 1 085 Kbps Writing application : VirtualDubMod 1.5.10.3 | www.virtualdub-fr.org || (build 2550/release) Writing library : VirtualDubMod build 2550/release

Video ID : 0 Format : MPEG-4 Visual Format profile : Advanced [email protected] Format settings, BVOP : 1 Format settings, QPel : No Format settings, GMC : No warppoints Format settings, Matrix : Custom Codec ID : XVID Codec ID/Hint : XviD Duration : 47mn 56s Bit rate : 948 Kbps Width : 656 pixels Height : 368 pixels Display aspect ratio : 16:9 Frame rate : 25.000 fps Color space : YUV Chroma subsampling : 4:2:0 Bit depth : 8 bits Scan type : Progressive Compression mode : Lossy Bits/(Pixel*Frame) : 0.157 Stream size : 325 MiB (87%) Writing library : XviD 73

Audio ID : 1 Format : MPEG Audio Format version : Version 1 Format profile : Layer 3 Codec ID : 55 Codec ID/Hint : MP3 Duration : 47mn 56s Bit rate mode : Constant Bit rate : 128 Kbps Channel(s) : 2 channels Sampling rate : 48.0 KHz Compression mode : Lossy Stream size : 43.9 MiB (12%) Alignment : Aligned on interleaves Interleave, duration : 40 ms (1.00 video frame) Interleave, preload duratio : 504 ms Writing library : LAME3.99r Encoding settings : -m s -V 4 -q 0 -lowpass 17 -b 128

Релиз от:

krutor.org

Скачать торрент Черная кошка [01-16 из 16] (2016) WEB-DLRip-AVC от ExKinoRay

Чёрная кошка

Эпизод с 1 по 16 (из 16)

«Настоящая история легендарной банды»

Год выпуска: 2016Страна: РоссияПроизводство: Кинокомпания РусскоеЖанр: История, криминал

Режиссёр: Антон СиверсВ ролях: Мария Андреева, Игорь Петренко, Гела Месхи, Дмитрий Соломыкин, Константин Лавроненко, Екатерина Гусева, Александр Лобанов (III), Виталий Герасимов, Иван Щенин, Алексей Шевченков, Юрий Чурсин, Юлия Галкина, Марина Доможирова, Вера Шпак, Анна Гарнова, Илья Бледный, Наталья Карпунина, Елена Цыплакова, Семён Шемес, Игорь Скрипко, Александр Зельский, Савелий Плескач, Екатерина Травова, Иван Соловьёв (III), Дмитрий Поднозов, Денис Васильев, Денис Сухомлинов, Наталья Зингер, Яков Шамшин, Михаил Боярский, Сергей Юшкевич, Алексей Шемес, Сергей Подольный, Алла Миронова, Сергей Вершинин, Андрей Зайков, Александр Ершов, Денис Дружинин, Георгий Тополага, Юрий Цурило, Кирилл Полухин, Александр Обласов, Владимир Чуприков, Денис Ясик, Анатолий Завьялов

Перевод: Не требуетсяСубтитры: НетРеклама: Отсутствует

Описание: Жестокая, таинственная и неуловимая банда «Черная кошка» из культового советского фильма «Место встречи изменить нельзя», действительно, существовала. Более того, она была не одна.

Их называли по-разному: «банда Митина», «Красногорские оборотни», «Черная кошка». Бандиты вышли на улицы Москвы прямо с Доски почёта оборонного завода Красногорска. Это были молодые парни — спортсмены, комсомольцы, ударники труда — лучшие представители передовой советской молодежи. Но это все днем… А ночью эти «передовые» ребята совершали дерзкие налеты, грабежи и убийства, несколько лет державшие в страхе всю страну. Их видели в лицо, их знали по именам, но никак не могли поймать, потому что никому не приходило в голову искать бандитов в рядах образцово-показательных комсомольцев…

Качество: WEB-DLRip-AVCПродолжительность: 16 х 00:50:00

Формат: MKVВидео кодек: MPEG-4 AVCАудио кодек: АС3Свойства видео: 1024x576 (16:9), 25 fps, MPEG-4 AVC ~1 800 kbps avg, 0.122 bit/pixelСвойства аудио: 48 KHz, AC3, 2 ch, ~192.00 kbps avg

MediaInfo

Общее Уникальный идентификатор : 238936482166400260297127878146035755526 (0xB3C17E19CB348A52AC0CCF28DA832A06) Полное имя : D:Chernaya.Koshka.2016.WEB-DLRip(AVC).ExKinoRay1.Chernaya.Koshka.2016.WEB-DLRip(AVC).ExKinoRay.mkv Формат : Matroska Версия формата : Version 2 Размер файла : 713 Мбайт Продолжительность : 50 м. Общий поток : 1984 Кбит/сек Дата кодирования : UTC 2016-11-14 22:57:57 Программа кодирования : mkvmerge v7.8.0 ('River Man') 32bit built on Apr 3 2015 12:11:22 Библиотека кодирования : libebml v1.3.1 + libmatroska v1.4.2

Видео Идентификатор : 1 Формат : AVC Формат/Информация : Advanced Video Codec Профиль формата : [email protected] Параметр CABAC формата : Да Параметр ReFrames формата : 10 кадров Идентификатор кодека : V_MPEG4/ISO/AVC Продолжительность : 50 м. Битрейт : 1800 Кбит/сек Ширина : 1024 пикселя Высота : 576 пикселей Соотношение сторон : 16:9 Режим частоты кадров : Постоянный Частота кадров : 25,000 кадров/сек Цветовое пространство : YUV Субдискретизация насыщенности : 4:2:0 Битовая глубина : 8 бит Тип развёртки : Прогрессивная Бит/(Пиксели*Кадры) : 0.122 Размер потока : 630 Мбайт (88%) Библиотека кодирования : x264 core 146 r2538 121396c Настройки программы : cabac=1 / ref=10 / deblock=1:-3:-3 / analyse=0x3:0x133 / me=umh / subme=10 / psy=1 / psy_rd=1.00:0.03 / mixed_ref=1 / me_range=48 / chroma_me=1 / trellis=2 / 8x8dct=1 / cqm=0 / deadzone=21,11 / fast_pskip=0 / chroma_qp_offset=-3 / threads=6 / lookahead_threads=1 / sliced_threads=0 / nr=0 / decimate=0 / interlaced=0 / bluray_compat=0 / constrained_intra=0 / bframes=10 / b_pyramid=2 / b_adapt=2 / b_bias=0 / direct=3 / weightb=1 / open_gop=0 / weightp=2 / keyint=240 / keyint_min=24 / scenecut=40 / intra_refresh=0 / rc_lookahead=40 / rc=2pass / mbtree=0 / bitrate=1800 / ratetol=1.0 / qcomp=0.60 / qpmin=0 / qpmax=69 / qpstep=4 / cplxblur=20.0 / qblur=0.5 / vbv_maxrate=50000 / vbv_bufsize=62500 / nal_hrd=none / filler=0 / ip_ratio=1.40 / pb_ratio=1.30 / aq=1:1.00 Default : Да Forced : Нет

Аудио Идентификатор : 2 Формат : AC-3 Формат/Информация : Audio Coding 3 Расширение режима : CM (complete main) Параметр Endianness формата : Big Идентификатор кодека : A_AC3 Продолжительность : 50 м. Вид битрейта : Постоянный Битрейт : 192 Кбит/сек Каналы : 2 канала Расположение каналов : Front: L R Частота : 48,0 КГц Битовая глубина : 16 бит Метод сжатия : С потерями Размер потока : 69,0 Мбайт (10%) Default : Да Forced : Нет

krutor.org

Скачать торрент Черная кошка [01-02 из 16] (2016) WEB-DLRip-AVC от ExKinoRay

Чёрная кошка

Эпизод с 1 по 2 (из 16)

«Настоящая история легендарной банды»

Год выпуска: 2016Страна: РоссияПроизводство: Кинокомпания РусскоеЖанр: История, криминал

Режиссёр: Антон СиверсВ ролях: Мария Андреева, Игорь Петренко, Гела Месхи, Дмитрий Соломыкин, Константин Лавроненко, Екатерина Гусева, Александр Лобанов (III), Виталий Герасимов, Иван Щенин, Алексей Шевченков, Юрий Чурсин, Юлия Галкина, Марина Доможирова, Вера Шпак, Анна Гарнова, Илья Бледный, Наталья Карпунина, Елена Цыплакова, Семён Шемес, Игорь Скрипко, Александр Зельский, Савелий Плескач, Екатерина Травова, Иван Соловьёв (III), Дмитрий Поднозов, Денис Васильев, Денис Сухомлинов, Наталья Зингер, Яков Шамшин, Михаил Боярский, Сергей Юшкевич, Алексей Шемес, Сергей Подольный, Алла Миронова, Сергей Вершинин, Андрей Зайков, Александр Ершов, Денис Дружинин, Георгий Тополага, Юрий Цурило, Кирилл Полухин, Александр Обласов, Владимир Чуприков, Денис Ясик, Анатолий Завьялов

Перевод: Не требуетсяСубтитры: НетРеклама: Отсутствует

Описание: Жестокая, таинственная и неуловимая банда «Черная кошка» из культового советского фильма «Место встречи изменить нельзя», действительно, существовала. Более того, она была не одна.

Их называли по-разному: «банда Митина», «Красногорские оборотни», «Черная кошка». Бандиты вышли на улицы Москвы прямо с Доски почёта оборонного завода Красногорска. Это были молодые парни — спортсмены, комсомольцы, ударники труда — лучшие представители передовой советской молодежи. Но это все днем… А ночью эти «передовые» ребята совершали дерзкие налеты, грабежи и убийства, несколько лет державшие в страхе всю страну. Их видели в лицо, их знали по именам, но никак не могли поймать, потому что никому не приходило в голову искать бандитов в рядах образцово-показательных комсомольцев…

Качество: WEB-DLRip-AVCПродолжительность: по ~ 00:50:00

Формат: MKVВидео кодек: MPEG-4 AVCАудио кодек: АС3Свойства видео: 1024x576 (16:9), 25 fps, MPEG-4 AVC ~1 800 kbps avg, 0.122 bit/pixelСвойства аудио: 48 KHz, AC3, 2 ch, ~192.00 kbps avg

MediaInfo

Общее Уникальный идентификатор : 238936482166400260297127878146035755526 (0xB3C17E19CB348A52AC0CCF28DA832A06) Полное имя : D:Chernaya.Koshka.2016.WEB-DLRip(AVC).ExKinoRay1.Chernaya.Koshka.2016.WEB-DLRip(AVC).ExKinoRay.mkv Формат : Matroska Версия формата : Version 2 Размер файла : 713 Мбайт Продолжительность : 50 м. Общий поток : 1984 Кбит/сек Дата кодирования : UTC 2016-11-14 22:57:57 Программа кодирования : mkvmerge v7.8.0 ('River Man') 32bit built on Apr 3 2015 12:11:22 Библиотека кодирования : libebml v1.3.1 + libmatroska v1.4.2

Видео Идентификатор : 1 Формат : AVC Формат/Информация : Advanced Video Codec Профиль формата : [email protected] Параметр CABAC формата : Да Параметр ReFrames формата : 10 кадров Идентификатор кодека : V_MPEG4/ISO/AVC Продолжительность : 50 м. Битрейт : 1800 Кбит/сек Ширина : 1024 пикселя Высота : 576 пикселей Соотношение сторон : 16:9 Режим частоты кадров : Постоянный Частота кадров : 25,000 кадров/сек Цветовое пространство : YUV Субдискретизация насыщенности : 4:2:0 Битовая глубина : 8 бит Тип развёртки : Прогрессивная Бит/(Пиксели*Кадры) : 0.122 Размер потока : 630 Мбайт (88%) Библиотека кодирования : x264 core 146 r2538 121396c Настройки программы : cabac=1 / ref=10 / deblock=1:-3:-3 / analyse=0x3:0x133 / me=umh / subme=10 / psy=1 / psy_rd=1.00:0.03 / mixed_ref=1 / me_range=48 / chroma_me=1 / trellis=2 / 8x8dct=1 / cqm=0 / deadzone=21,11 / fast_pskip=0 / chroma_qp_offset=-3 / threads=6 / lookahead_threads=1 / sliced_threads=0 / nr=0 / decimate=0 / interlaced=0 / bluray_compat=0 / constrained_intra=0 / bframes=10 / b_pyramid=2 / b_adapt=2 / b_bias=0 / direct=3 / weightb=1 / open_gop=0 / weightp=2 / keyint=240 / keyint_min=24 / scenecut=40 / intra_refresh=0 / rc_lookahead=40 / rc=2pass / mbtree=0 / bitrate=1800 / ratetol=1.0 / qcomp=0.60 / qpmin=0 / qpmax=69 / qpstep=4 / cplxblur=20.0 / qblur=0.5 / vbv_maxrate=50000 / vbv_bufsize=62500 / nal_hrd=none / filler=0 / ip_ratio=1.40 / pb_ratio=1.30 / aq=1:1.00 Default : Да Forced : Нет

Аудио Идентификатор : 2 Формат : AC-3 Формат/Информация : Audio Coding 3 Расширение режима : CM (complete main) Параметр Endianness формата : Big Идентификатор кодека : A_AC3 Продолжительность : 50 м. Вид битрейта : Постоянный Битрейт : 192 Кбит/сек Каналы : 2 канала Расположение каналов : Front: L R Частота : 48,0 КГц Битовая глубина : 16 бит Метод сжатия : С потерями Размер потока : 69,0 Мбайт (10%) Default : Да Forced : Нет

krutor.org

Скачать торрент Черная кошка [01-16 из 16] (2016) WEB-DLRip от GeneralFilm :: Mrutor.org

Информация о фильмеОригинальное название: Черная кошкаГод выпуска: 2016Жанр: История, криминалРежиссер: Антон СиверсВ ролях: Мария Андреева, Игорь Петренко, Гела Месхи, Дмитрий Соломыкин, Константин Лавроненко, Екатерина Гусева, Александр Лобанов (III), Виталий Герасимов, Иван Щенин, Алексей Шевченков, Юрий Чурсин, Юлия Галкина, Марина Доможирова, Вера Шпак, Анна Гарнова, Илья Бледный, Наталья Карпунина, Елена Цыплакова, Семён Шемес, Игорь Скрипко, Александр Зельский, Савелий Плескач, Екатерина Травова, Иван Соловьёв (III), Дмитрий Поднозов, Денис Васильев, Денис Сухомлинов, Наталья Зингер, Яков Шамшин, Михаил Боярский, Сергей Юшкевич, Алексей Шемес, Сергей Подольный, Алла Миронова, Сергей Вершинин, Андрей Зайков, Александр Ершов, Денис Дружинин, Георгий Тополага, Юрий Цурило, Кирилл Полухин, Александр Обласов, Владимир Чуприков, Денис Ясик, Анатолий Завьялов

О фильме: Жестокая, таинственная и неуловимая банда «Черная кошка» из культового советского фильма «Место встречи изменить нельзя», действительно, существовала. Более того, она была не одна. Их называли по-разному: «банда Митина», «Красногорские оборотни», «Черная кошка». Бандиты вышли на улицы Москвы прямо с Доски почёта оборонного завода Красногорска. Это были молодые парни — спортсмены, комсомольцы, ударники труда — лучшие представители передовой советской молодежи. Но это все днем… А ночью эти «передовые» ребята совершали дерзкие налеты, грабежи и убийства, несколько лет державшие в страхе всю страну. Их видели в лицо, их знали по именам, но никак не могли поймать, потому что никому не приходило в голову искать бандитов в рядах образцово-показательных комсомольцев

Страна: РоссияСтудия: Кинокомпания «Русское»Продолжительность: 16 x ~ 00:50:00Перевод: Не требуется

ФайлФормат: aviКачество: HDTVRipВидео: XviD build 73, 656x368 (16:9), 25.000 fps, ~ 950 Kbps (~ 0.155 bit/pixel)Звук: 48.0 kHz, MP3, 2/0 ch, 128 kbpsСубтитры: нет

МедиаИнфо

General Complete name : Chernaja.Koshka.2016.XviD.WEB-DLRip.GeneralFilmSerija.02.avi Format : AVI Format/Info : Audio Video Interleave File size : 372 MiB Duration : 47mn 56s Overall bit rate : 1 085 Kbps Writing application : VirtualDubMod 1.5.10.3 | www.virtualdub-fr.org || (build 2550/release) Writing library : VirtualDubMod build 2550/release

Video ID : 0 Format : MPEG-4 Visual Format profile : Advanced [email protected] Format settings, BVOP : 1 Format settings, QPel : No Format settings, GMC : No warppoints Format settings, Matrix : Custom Codec ID : XVID Codec ID/Hint : XviD Duration : 47mn 56s Bit rate : 948 Kbps Width : 656 pixels Height : 368 pixels Display aspect ratio : 16:9 Frame rate : 25.000 fps Color space : YUV Chroma subsampling : 4:2:0 Bit depth : 8 bits Scan type : Progressive Compression mode : Lossy Bits/(Pixel*Frame) : 0.157 Stream size : 325 MiB (87%) Writing library : XviD 73

Audio ID : 1 Format : MPEG Audio Format version : Version 1 Format profile : Layer 3 Codec ID : 55 Codec ID/Hint : MP3 Duration : 47mn 56s Bit rate mode : Constant Bit rate : 128 Kbps Channel(s) : 2 channels Sampling rate : 48.0 KHz Compression mode : Lossy Stream size : 43.9 MiB (12%) Alignment : Aligned on interleaves Interleave, duration : 40 ms (1.00 video frame) Interleave, preload duratio : 504 ms Writing library : LAME3.99r Encoding settings : -m s -V 4 -q 0 -lowpass 17 -b 128

Релиз от:

mrutor.org

rutor.org :: Черные кошки [01-12 из 12] (2013) WEB-DLRip ::: Скачать торрент

Информация о фильмеНазвание: Черные кошкиГод выхода: 2013Жанр: Детектив, драма, военный, историяРежиссер: Евгений ЛаврентьевВ ролях: Павел Деревянко, Марина Коняшкина, Ольга Ломоносова, Евгений Сидихин, Павел Трубинер, Роман Лукьянов, Алексей Комашко, Михаил Хмуров, Мария Антонова (II), Вадим Норштейн, Богдан Колесник, Сергей Деньга, Виктор Демковский

О фильме: 1947 год. Ростов-на-Дону. В стране, обескровленной войной, царят голод и разруха. Хлеб - в буквальном смысле на вес золота, а стоимость человеческой жизни равняется нулю. Растет число преступлений, появляются бандитские группировки, которые контролируют целые города. Подобно черным кошкам, они появляются незамеченными под покровом ночи, и легко уходят с места преступления. Банда, действующая в Ростове, грабит продовольственный склад, оставляя кровавые следы. Сотрудник уголовного розыска майор Егор Драгун подозревает, что в ней действуют не обычные уголовники. Его подозрения оправдываются: под бандитов, запутывая следы, маскируются бывшие сотрудники вермахта. Их истинная цель - захват известного немецкого ученого, который находится в лагере для военнопленных на территории Ростова-на-Дону. В Германии ученый работал над созданием атомной бомбы. Если вывезти его в Аргентину, куда после войны переместились фашистские группировки, и дать закончить работу, может начаться ядерная война. Цель Драгуна и его подручных - найти и обезвредить преступников. Помощь приходит, откуда не ждали - со стороны настоящих уголовников. Объединившись ради общей цели, они не дадут развязать новую войну.

Страна: РоссияСтудия: «Марс Медиа», «Продюсерский центр «ГОРАД», «Студия «Пантократор»Продолжительность: 12 х ~ 00:49:00Перевод: не трбуется

ФайлКодек: XviDКачество: WEB-DLRip DLRip (Исх. WEB-DL 1080p)Видео: 688x384 (1.79:1), 25 fps, XviD build 50 ~1850 kbps avg, 0.28 bit/pixelЗвук: 48 kHz, AC3 Dolby Digital, 2/0 (L,R) ch, ~192.00 kbps avgСубтитры: нет

Семпл

MediaInfo

Общее Полное имя : K:Черные кошки. 2013. WEB-DLRipЧерные кошки. 2013. WEB-DLRip. 7 серия.avi Формат : AVI Формат/Информация : Audio Video Interleave Размер файла : 654 Мбайт Продолжительность : 44 м. Общий поток : 2052 Кбит/сек Программа кодирования : VirtualDubMod 1.5.10.3 | www.virtualdub-fr.org || (build 2550/release) Библиотека кодирования : VirtualDubMod build 2550/release

Видео Идентификатор : 0 Формат : MPEG-4 Visual Профиль формата : Advanced [email protected] Параметр BVOP формата : 2 Параметр QPel формата : Нет Параметр GMC формата : Без точки перехода Параметр матрицы формата : Выборочная Идентификатор кодека : XVID Идентификатор кодека/Подсказка : XviD Продолжительность : 44 м. Битрейт : 1850 Кбит/сек Ширина : 688 пикс. Высота : 384 пикс. Соотношение сторон : 16:9 Частота кадров : 25,000 кадр/сек Цветовое пространство : YUV Подвыборка цветности : 4:2:0 Битовая глубина : 8 бит Тип развёртки : Прогрессивная Метод сжатия : С потерями Бит/(Пиксели*Кадры) : 0.280 Размер потока : 589 Мбайт (90%) Библиотека кодирования : XviD 1.2.1 (UTC 2008-12-04)

Аудио Идентификатор : 1 Формат : AC-3 Формат/Информация : Audio Coding 3 Расширение режима : CM (complete main) Идентификатор кодека : 2000 Продолжительность : 44 м. Вид битрейта : Постоянный Битрейт : 192 Кбит/сек Каналы : 2 канала Расположение каналов : Front: L R Частота : 48,0 КГц Битовая глубина : 16 бит Метод сжатия : С потерями Размер потока : 61,2 Мбайт (9%) Выравнивание : Разделение по промежуткам Продолжительность промежутка : 40 мс. (1,00 видеокадр) Время предзагрузки промежутка : 500 ms

Раздача ведётся путём добавления новых серий

Раздача ведётся путём добавления новых серий; при каждом добавлении создаётся новый торрент. Чтобы начать докачку новой серии, пользователям необходимо сделать следующее: (1) остановить скачивание, (2) удалить старый торрент у себя из клиента (старые серии удалять не надо), (3) скачать новый торрент и запустить его у себя в клиенте вместо старого, при этом указать клиенту путь в старую папку куда и должно происходить скачивание новых серий.

Ваш клиент при этом должен произвести хеширование (проверку) старой папки (если не производит сам - помогите ему сделать это), и будет докачивать только те серии которых у вас ещё нет. Старые серии при этом не удаляются, а продолжают раздаваться!

Eсли вы уже удалили старые серии, то предотвратить повторную закачку старых серий можно, отжав галочку в соответствующих местах при запуске нового торрента. По возможности, желательно не удалять старые серии как можно дольше чтобы релизёр не столько продолжал раздавать старые серии, а смог сконцентрироваться на новых.

main-rutor.org


Смотрите также