За пригоршню долларов торрент скачать


:
1 (1964) BDRip

: AVI: BDRip: : 640x272 (2.35:1), 24 fps, XviD build 73 ~903 kbps avg, 0.22 bit/pixel: 48 kHz, MPEG Layer 3, 2 ch, ~128.00 kbps avg

743.85Mb 396 339
2 (1964) BDRip

: AVI: BDRip: : 640x272 (2.35:1), 24 fps, XviD build 73 ~903 kbps avg, 0.22 bit/pixel: 48 kHz, MPEG Layer 3, 2 ch, ~128.00 kbps avg

743.85Mb 396 339
3 (1964) BDRip

: AVI: BDRip: : 720x304 (2.37:1), 24 fps, XviD build 73 ~1620 kbps avg, 0.31 bit/pixel: 48 kHz, AC3 Dolby Digital, 3/2 (L,C,R,l,r) + LFE ch, ~448 kbps

1.45Gb 396 339
4 (1964) BDRip

: AVI: BDRip: : 720x304 (2.37:1), 24 fps, XviD build 73 ~1620 kbps avg, 0.31 bit/pixel: 48 kHz, AC3 Dolby Digital, 3/2 (L,C,R,l,r) + LFE ch, ~448 kbps

1.45Gb 396 339
5 (1964) BDRip

: AVI: BDRip: : 720x304 (2.37:1), 24 fps, XviD build 50 ~ 1904 kbps avg, 0.36 bit/pixel: #1: 48 kHz, AC3 Dolby Digital, 3/2 (L,C,R,l,r) + LFE ch, ~448.00 kbps avg #2: 48 kHz, AC3 Dolby Digital, 3/2 (L,C,R,l,r) + LFE ch, ~384.00 kbps avg #3: 48 kHz, AC3 Dolby Digital, 3/2 (L,C,R,l,r) + LFE ch, ~384.00 kbps avg

2.18Gb 396 339
6 (1964) BDRip

: AVI: BDRip: : 720x304 (2.37:1), 24 fps, XviD build 50 ~ 1904 kbps avg, 0.36 bit/pixel: #1: 48 kHz, AC3 Dolby Digital, 3/2 (L,C,R,l,r) + LFE ch, ~448.00 kbps avg #2: 48 kHz, AC3 Dolby Digital, 3/2 (L,C,R,l,r) + LFE ch, ~384.00 kbps avg #3: 48 kHz, AC3 Dolby Digital, 3/2 (L,C,R,l,r) + LFE ch, ~384.00 kbps avg

2.18Gb 396 339
7 (1964) BDRip : MKV: BDRip: :   AVC, 1024x440 (2.35:1), 4000 kbps, 60 fps, 0,148 bpp:   / AC3 / 5.1 / 48 kHz / 448 kbps / 16 bit 3.11Gb 396 339
8 (1964) BDRip : MKV: BDRip: :   AVC, 1024x440 (2.35:1), 4000 kbps, 60 fps, 0,148 bpp:   / AC3 / 5.1 / 48 kHz / 448 kbps / 16 bit 3.11Gb 396 339
9 (1964) BDRip

: MKV: BDRip: : 1920x816 (2.35:1), AVC, 9848 Kbps, 24.000 fps: 1: AC3, 6 ch, 640 kbps ()

7.77Gb 396 339
10 (1964) BDRip

: MKV: BDRip: : 1920x816 (2.35:1), AVC, 9848 Kbps, 24.000 fps: 1: AC3, 6 ch, 640 kbps ()

7.77Gb 396 339
11 (1964) BDRip : MKV: BDRip: : MPEG4 Video (h364), 1920x816, 24 fps, 12.5 Mbps: #1: : Dolby AC3, 48000Hz, 6ch, 448kbps -

#2: : Dolby AC3, 48000Hz, 6ch, 384kbps - - . (Goblin)

#3: : Dolby AC3, 48000Hz, 2ch, 192kbps -

9.84Gb 396 339
12 (1964) BDRip : MKV: BDRip: : MPEG4 Video (h364), 1920x816, 24 fps, 12.5 Mbps: #1: : Dolby AC3, 48000Hz, 6ch, 448kbps -

#2: : Dolby AC3, 48000Hz, 6ch, 384kbps - - . (Goblin)

#3: : Dolby AC3, 48000Hz, 2ch, 192kbps -

9.84Gb 396 339

filmitorrents.org

rutor.org :: За пригоршню долларов / A Fistful Of Dollars (1964) BDRip 1080p

Информация о фильмеНазвание: За пригоршню долларовОригинальное название: A Fistful Of DollarsГод выпуска: 1964Страна: Италия, ФРГ, ИспанияЖанр: ВестернПродолжительность: 01:39:54

Перевод 1: Профессиональный (многоголосый закадровый)Перевод 2: Авторский (одноголосый закадровый) - Д.Пучков (Goblin), А.Гаврилов, В.ГорчаковСубтитры: Русские, английские

Режиссер: Серджио Леоне

В ролях: Клинт Иствуд, Джан-Мария Волонте, Марианне Кох, Вольфганг Лукши, Марио Брега, Кэрол Браун

Описание: В маленький городок на границе Мексики и Америки приезжает одинокий и молчаливый ковбой (Клинт Иствуд). Очень скоро, причем на собственной шкуре он узнает, что в городе заправляют две банды: семья Рохо и семья Бакстеров. Первой "рулят" трое братьев мексиканцев: Рамон, Эстебан и Дон Мигель Рохо. Второй - шериф этого города Джон Бакстер. Эти организованные преступные группировки люто ненавидят друг друга. Возможно, вся жизнь в городе шла бы по привычному укладу, пока люди Бакстера не начинают "наезжать" на Ковбоя. Но парень оказывается не промах - в прямом и переносном смысле. Стреляет он лучше всех в этом городке. А соображает и подавно. Вскоре незнакомец решает стравить группировки для открытой войны, что в итоге ему и удается. Группировка братьев Рохо берет верх над Бакстерами, но после резни в банде мексиканцев остается, лишь 4 человека, и ковбой убивает их в дуэли. Финал картины довершает поединок Рамона и "Джо - Человека без имени" под музыку Эннио Морриконе.

Качество: BDRip 1080pФормат: MKVВидео кодек: h364Аудио кодек: AC3Видео: MPEG4 Video (h364), 1920x816, 24 fps, 12.5 MbpsАудио #1: Русский: Dolby AC3, 48000Hz, 6ch, 448kbps - Многоголосый Аудио #2: Русский: Dolby AC3, 48000Hz, 6ch, 384kbps - Одноголосый закадровый - Д.Пучков (Goblin)Аудио #3: Русский: Dolby AC3, 48000Hz, 2ch, 192kbps - Одноголосый закадровый - А.ГавриловАудио #4: Русский: Dolby AC3, 48000Hz, 2ch, 192kbps - Одноголосый закадровый - В.Горчаков Аудио #5: Английский: Dolby AC3, 48000Hz, 6ch, 384kbpsФормат субтитров: softsub (SRT)

Сэмпл

MediaInfo:

General Unique ID : 245902414216600011141451782000191887561 (0xB8FF151132F389C4810F667E404E58C9) Complete name : F:Torrent 21964.Fistful.Dollars.likko.mkv Format : Matroska Format version : Version 4 / Version 2 File size : 9.84 GiB Duration : 1h 39mn Overall bit rate : 14.1 Mbps Encoded date : UTC 2014-12-18 19:54:18 Writing application : mkvmerge v7.1.0 ('Good Love') 32bit built on Jul 27 2014 12:59:18 Writing library : libebml v1.3.0 + libmatroska v1.4.1 DURATION : 01:35:38.542000000 NUMBER_OF_FRAMES : 596 NUMBER_OF_BYTES : 25386 _STATISTICS_WRITING_APP : mkvmerge v7.1.0 ('Good Love') 32bit built on Jul 27 2014 12:59:18 _STATISTICS_WRITING_DATE_UTC : 2014-12-18 19:54:18 _STATISTICS_TAGS : BPS DURATION NUMBER_OF_FRAMES NUMBER_OF_BYTES

Video ID : 1 Format : AVC Format/Info : Advanced Video Codec Format profile : [email protected] Format settings, CABAC : Yes Format settings, ReFrames : 4 frames Codec ID : V_MPEG4/ISO/AVC Duration : 1h 39mn Bit rate : 12.5 Mbps Width : 1 920 pixels Height : 816 pixels Display aspect ratio : 2.35:1 Frame rate mode : Constant Frame rate : 24.000 fps Color space : YUV Chroma subsampling : 4:2:0 Bit depth : 8 bits Scan type : Progressive Bits/(Pixel*Frame) : 0.332 Stream size : 8.53 GiB (87%) Title : За пригоршню долларов / renta23 Writing library : x264 core 125 r2208 d9d2288 Encoding settings : cabac=1 / ref=5 / deblock=1:-1:-1 / analyse=0x3:0x133 / me=umh / subme=11 / psy=1 / psy_rd=1.20:0.25 / mixed_ref=1 / me_range=32 / chroma_me=1 / trellis=2 / 8x8dct=1 / cqm=0 / deadzone=21,11 / fast_pskip=0 / chroma_qp_offset=-4 / threads=12 / lookahead_threads=2 / sliced_threads=0 / nr=0 / decimate=1 / interlaced=0 / bluray_compat=0 / constrained_intra=0 / bframes=12 / b_pyramid=1 / b_adapt=2 / b_bias=0 / direct=3 / weightb=1 / open_gop=0 / weightp=2 / keyint=250 / keyint_min=23 / scenecut=40 / intra_refresh=0 / rc_lookahead=50 / rc=2pass / mbtree=1 / bitrate=12500 / ratetol=1.0 / qcomp=0.60 / qpmin=0 / qpmax=69 / qpstep=4 / cplxblur=20.0 / qblur=0.5 / ip_ratio=1.40 / aq=1:1.00 Language : English Default : Yes Forced : No

Audio #1 ID : 2 Format : AC-3 Format/Info : Audio Coding 3 Mode extension : CM (complete main) Format settings, Endianness : Big Codec ID : A_AC3 Duration : 1h 39mn Bit rate mode : Constant Bit rate : 448 Kbps Channel(s) : 6 channels Channel positions : Front: L C R, Side: L R, LFE Sampling rate : 48.0 KHz Bit depth : 16 bits Compression mode : Lossy Stream size : 320 MiB (3%) Title : Многоголосый Language : Russian Default : Yes Forced : No

Audio #2 ID : 3 Format : AC-3 Format/Info : Audio Coding 3 Mode extension : CM (complete main) Format settings, Endianness : Big Codec ID : A_AC3 Duration : 1h 39mn Bit rate mode : Constant Bit rate : 384 Kbps Channel(s) : 6 channels Channel positions : Front: L C R, Side: L R, LFE Sampling rate : 48.0 KHz Bit depth : 16 bits Compression mode : Lossy Stream size : 274 MiB (3%) Title : Одноголосый закадровый - Д.Пучков (Goblin) Language : Russian Default : No Forced : No

Audio #3 ID : 4 Format : AC-3 Format/Info : Audio Coding 3 Format profile : Dolby Digital Mode extension : CM (complete main) Format settings, Endianness : Big Codec ID : A_AC3 Duration : 1h 39mn Bit rate mode : Constant Bit rate : 192 Kbps Channel(s) : 2 channels Channel positions : Front: L R Sampling rate : 48.0 KHz Bit depth : 16 bits Compression mode : Lossy Stream size : 137 MiB (1%) Title : Одноголосый закадровый - А.Гаврилов Language : Russian Default : No Forced : No

Audio #4 ID : 5 Format : AC-3 Format/Info : Audio Coding 3 Format profile : Dolby Digital Mode extension : CM (complete main) Format settings, Endianness : Big Codec ID : A_AC3 Duration : 1h 39mn Bit rate mode : Constant Bit rate : 192 Kbps Channel(s) : 2 channels Channel positions : Front: L R Sampling rate : 48.0 KHz Bit depth : 16 bits Compression mode : Lossy Stream size : 137 MiB (1%) Title : Одноголосый закадровый - В.Горчаков Language : Russian Default : No Forced : No

Audio #5 ID : 6 Format : AC-3 Format/Info : Audio Coding 3 Mode extension : CM (complete main) Format settings, Endianness : Big Codec ID : A_AC3 Duration : 1h 39mn Bit rate mode : Constant Bit rate : 384 Kbps Channel(s) : 6 channels Channel positions : Front: L C R, Side: L R, LFE Sampling rate : 48.0 KHz Bit depth : 16 bits Compression mode : Lossy Stream size : 274 MiB (3%) Language : English Default : No Forced : No

Text #1 ID : 7 Format : UTF-8 Codec ID : S_TEXT/UTF8 Codec ID/Info : UTF-8 Plain Text Language : Russian Default : No Forced : No

Text #2 ID : 8 Format : UTF-8 Codec ID : S_TEXT/UTF8 Codec ID/Info : UTF-8 Plain Text Language : English Default : No Forced : No

Menu 00:00:00.000 : en:Chapter 01 00:02:53.500 : en:Chapter 02 00:08:26.333 : en:Chapter 03 00:16:38.083 : en:Chapter 04 00:21:15.875 : en:Chapter 05 00:27:48.000 : en:Chapter 06 00:34:26.250 : en:Chapter 07 00:36:59.083 : en:Chapter 08 00:41:20.791 : en:Chapter 09 00:47:50.083 : en:Chapter 10 00:50:38.500 : en:Chapter 11 00:57:24.125 : en:Chapter 12 01:00:57.875 : en:Chapter 13 01:07:26.583 : en:Chapter 14 01:11:52.583 : en:Chapter 15 01:24:55.833 : en:Chapter 16 01:28:56.166 : en:Chapter 17 01:34:37.458 : en:Chapter 18

На несколько долларов больше

Хороший, плохой, злой

main-rutor.org

За пригоршню долларов 1964 - скачать бесплатно через торрент в хорошем качестве. Без регистрации

Название: За пригоршню долларов / A Fistful of Dollars / Per un pugno di dollari (1964) BDRip 720p от NNNB | P, A
Качество видео: BDRip 720p (исходник Blu-Ray Remux 1080p)
Перевод: Профессиональный (многоголосый закадровый), Авторский одноголосый
Формат видео: MKV
Видео: 1280x546, 8755 Кбит/сек, 24,000 кадр/сек, AVC, x264, [email protected], 2.35:1, 0.522 Бит/[Пиксели*Кадры]
Аудио: AC-3, 448 Кбит/сек, 6 канала(ов), 48,0 КГц - Многоголосый закадровый / РусскийAC-3, 384 Кбит/сек, 6 канала(ов), 48,0 КГц - Одноголосый закадровый, Д.Пучков / РусскийAC-3, 192 Кбит/сек, 2 канала(ов), 48,0 КГц - Одноголосый закадровый, А.Гаврилов / РусскийAC-3, 192 Кбит/сек, 2 канала(ов), 48,0 КГц - Одноголосый закадровый, В.Горчаков / РусскийAC-3, 384 Кбит/сек, 6 канала(ов), 48,0 КГц - Оригинал / Английский
Скачать

Загрузка начнется в течение 5 сек.

7.23 GB

Название: За пригоршню долларов / Per un pugno di dollari (1964) BDRip | VO SATKUR
Качество видео: BDRip
Перевод: Одноголосый закадровый SATKUR (из личной коллекции для поклонников жанра)
Видео: XVID 720x304 (2.35:1), 24 fps, XviD 1887 kbps avg, 0.359 bit/pixel
Аудио: Аудио 1: 48 kHz, AC3 Dolby Digital, 3/2 (L,C,R,l,r) + LFE ch, ~448.00 kbps avg - русский
Скачать

Загрузка начнется в течение 5 сек.

1.91 GB

Название: За пригоршню долларов / A Fistful of Dollars / Per un pugno di dollari (1964) HDRip от Scarabey | Р
Качество видео: HDRip
Перевод: Профессиональный (многоголосый,закадровый)
Формат видео: AVI
Видео: 640x272 (2.35:1), 24 fps, XviD build 73 ~903 kbps avg, 0.22 bit/pixel
Аудио: 48 kHz, MPEG Layer 3, 2 ch, ~128.00 kbps avg
Скачать

Загрузка начнется в течение 5 сек.

743.85 MB

Название: За пригоршню долларов / A Fistful of Dollars / Per un pugno di dollari (1964) HDRip от Scarabey | Р
Качество видео: HDRip
Перевод: Профессиональный (многоголосый закадровый)
Формат видео: AVI
Видео: 720x304 (2.37:1), 24 fps, XviD build 73 ~1620 kbps avg, 0.31 bit/pixel
Аудио: 48 kHz, AC3 Dolby Digital, 3/2 (L,C,R,l,r) + LFE ch, ~448 kbps
Скачать

Загрузка начнется в течение 5 сек.

1.45 GB

www.kinovit.net

Обсуждение Фильмов - За пригоршню долларов

Фильмы: За пригоршню долларов / Fistful of dollars (1964) Подробнее

В небольшой пограничный городок Сан-Мигель приезжает бродяга-стрелок (Клинт Иствуд). Жителей на улицах нет, первый, кого он встречает — усаженный на лошадь мертвец, к спине которого приколота издевательская записка «Adios, amigo» («Прощай, друг»). Со слов хозяина салуна стрелок узнаёт, что городок стал ареной противоборства двух банд, которые занимаются контрабандой — мексиканцев Рохо и американцев Бакстеров. Обе банды равно сильны, и ни одна не может взять верх над другой. Стрелок решает «раскачать» ситуацию....

zunami

Karma:+2 / -0

[+] [-]

Возраст:2012 не указан

Сообщений: 2 08 Апрель 2009 18:40

Классика жанра, советую.

eclisiast 1

Возраст:49 Мужской

Сообщений: 934

серджо леоне нужно смотреть всего!!!! 5+

nikalmak

Возраст:65 Мужской

Сообщений: 28

Я очень благодарен этому сайту за выставленный вестерн из трех фильмов. Спасибо.

почему я скачивал фильм за пригоршню долларов а скачался лопухи Lulu 103

Возраст:7 Женский

Сообщений: 95651

я всегда буду

Проблема у Вас. Прочтите здесь: http://www.fast-torrent.ru/topic/1/6581/

Пы.Сы.и не надо делать мне комплиментов и ласково называть,от них мой котик превращается в тигра.

Tofet 3565

Возраст:7 не указан

Сообщений: 1250

Отличный фильм, классика!!!

Chev 1

Возраст:23 Мужской

Сообщений: 20 Не то что бы я был противником вестернов и сказал что фильм плохой, нет, он добротный, с хорошей актерской игрой (Иствуд всегда на высоте), фирменным саундом аля "Добро пожаловать на дикий запад" и крутыми перестрелками... Просто наверное кино не на все времена, большинство людей этого поколения не ценят такие фильмы, а жаль, многое упускают. Классика. 5 из 5 olga842

Возраст:51 Женский

Сообщений: 106

классика-тем более в этой роли Клинт Иствуд стал прообразом Роланда Стивина Кинга из романа Темная башня

keysi raybek

Возраст:7 Мужской

Сообщений: 100

отличный вестерн,смотреть только в правильном переводе гоблина,спасибо что выложили,финальная схватка просто шедевр!!!!!!!! оценка 5+

Susleg 75

Возраст:42 Мужской

Сообщений: 249

Пожалуй - лучший из всей трилогии. 5+

zak-doc 17

Возраст:41 Мужской

Сообщений: 108 а у меня что-то с переводом хреново-сразу два переводчика Lulu 103

Возраст:7 Женский

Сообщений: 95651

я всегда буду

zak-doc Тут почитайте - http://www.fast-torrent.ru/topic/1/1650/

Пы.Сы.и не надо делать мне комплиментов и ласково называть,от них мой котик превращается в тигра.

clint

Возраст:41 Мужской

Сообщений: 212 Именно с этого фильма началась моя любовь к вестернам и Клинту (взгляните на мой ник)! Я не скажу, что фильм - шедевр, да и поставлен по японскому фильму "Телохранитель" (здесь он тоже есть)! А "Последний бойскаут" с Уиллисом? Если римейки продолжаютя - значит, фильм чего-то стоит. Благодарю за раздачу! 5141bm

Возраст:217 не указан

Сообщений: 2 фильм нормальный!!!класика!!вспоминается фильм "назад в будущее 3"-есть определеные моменты взятые из этого фильма. Так фильм на твердую 5-музыка Энио мориконе-у этого композитора столько мелодий к фильмам Професионал,два мула для сестры сары!!!!-великий композитор-без такой музыкальной озвучки фильм бы смотрелся не очень-музыка вытянула на 5!!!вообщем ставлю 5!!!И остальным советую посмотреть!!!и если понравится музыка просто скачайте мелодии к фильмам Энио мориконе-непожалеете!!! SetadiaN

Возраст:7 не указан

Сообщений: 13 Все вестерны с Клинтом Иствудом нравятся в том числе и этот. супер!!!! 5+

The Bird Of The Hermes Is My Name...

Великий фильм с великим актёром. 26 rus

Возраст:7 не указан

Сообщений: 200

Первый вестерн который увидел в осознаном возрасте , смотрел его раз10 , великолепный фильм из трилогии . жаль щас жанр вестернов не выдает таких шедевров

24 Апрель 2012 16:34 люблю фильмы клинта SSSWW 753

Возраст:25 Мужской

Сообщений: 2605

Третья часть поинтереснее будет, но и эта на 5+

AD1973 283

Возраст:44 Мужской

Сообщений: 432

Кто в армии служил, тот в цирке не смеется

Отличный фильм, отличный Иствуд, отличный Морриконе!!! 100%

Если смотреть вестерн , то начинать надо с Клинта Иствуда . Я так думаю.

muxbunny 14

Возраст:24 Мужской

Сообщений: 123 09 Апрель 2013 16:05

26 rus пишет:

Первый вестерн который увидел в осознаном возрасте , смотрел его раз10 , великолепный фильм из трилогии . жаль щас жанр вестернов не выдает таких шедевров

Тарантино недавно выпустил в прокат Джанго, не уступающий по уровню классическим вестернам, а говоришь нет шедевров.

MACHETE

Возраст:37 Мужской

Сообщений: 774 Гениально! Просто шедевр! Нет слов! Клинт Иствуд лучший!

Осторожно - спойлер!

Больше всего люблю финальную дуэль. Человек без имени под градом пуль, падает и поднимается, а потом подходит к Рамону и сбрасывает железную пластину в которую попали все пули... Гениально!

Ezmin 188

Возраст:42 Мужской

Сообщений: 661 вот это фильм стоит на первом месте среди вестернов! LeopoldStoch 20

Возраст:32 Мужской

Сообщений: 211

Очень сильно. пару лет назад посмотрел первый(!) раз этот фильм. сильно запомнилось. лучшее определение фильму, на мой взгляд- эталонный. ps через пару дней после него смотрел гран торино... иствуд-сам эталон)))

Grave 125

Возраст:26 Мужской

Сообщений: 369 Отличный вестерн! Рекомендую.

с годами я хорошею

какой фильмец клевый +5

dadamaxim 1

Возраст:7 не указан

Сообщений: 7

не болей врачи не дремлют!

Из назад в будущее были моменты. Когда Бифф принимал ванну а к нему пришел Марти.

Отличный вестерн - теперь уже классика жанра. Клинт Иствуд на высоте! Но сюжет содрали с "Телохранитель" Куросавы - тут не поспоришь.

Вы не можете оставлять больше 10 комментариев в сутки!

detskiy.fast-torrent.ru

За пригоршню долларов через торрент

GeneralUnique ID : 187663212198807011512249038290032591878 (0x8D2E9EB73AB5FFD5A68CCF95ACBD0406)Complete name : D:\За пригоршню долларов BDRip-AVC 60fps R.G. HD-Films.mkvFormat : MatroskaFormat version : Version 4 / Version 2File size : 3.11 GiBDuration : 1h 39mnOverall bit rate : 4 453 KbpsEncoded date : UTC 2016-02-06 06:29:30Writing application : mkvmerge v8.3.0 ('Over the Horizon') 64bitWriting library : libebml v1.3.1 + libmatroska v1.4.2

VideoID : 1Format : AVCFormat/Info : Advanced Video CodecFormat profile : [email protected] settings, CABAC : YesFormat settings, ReFrames : 4 framesCodec ID : V_MPEG4/ISO/AVCDuration : 1h 39mnBit rate : 4 000 KbpsWidth : 1 024 pixelsHeight : 440 pixelsDisplay aspect ratio : 2.35:1Frame rate : 60.000 fpsColor space : YUVChroma subsampling : 4:2:0Bit depth : 8 bitsScan type : ProgressiveBits/(Pixel*Frame) : 0.148Stream size : 2.73 GiB (88%)Writing library : x264 core 146 r2538 121396cEncoding settings : cabac=1 / ref=3 / deblock=1:0:0 / analyse=0x3:0x113 / me=umh / subme=9 / psy=1 / psy_rd=1.00:0.10 / mixed_ref=1 / me_range=32 / chroma_me=1 / trellis=2 / 8x8dct=1 / cqm=0 / deadzone=21,11 / fast_pskip=0 / chroma_qp_offset=-3 / threads=12 / lookahead_threads=3 / sliced_threads=0 / nr=0 / decimate=1 / interlaced=0 / bluray_compat=0 / constrained_intra=0 / bframes=16 / b_pyramid=2 / b_adapt=2 / b_bias=0 / direct=3 / weightb=1 / open_gop=0 / weightp=2 / keyint=250 / keyint_min=25 / scenecut=40 / intra_refresh=0 / rc_lookahead=40 / rc=2pass / mbtree=1 / bitrate=4000 / ratetol=1.0 / qcomp=0.60 / qpmin=0 / qpmax=69 / qpstep=4 / cplxblur=20.0 / qblur=0.5 / vbv_maxrate=14000 / vbv_bufsize=14000 / nal_hrd=none / filler=0 / ip_ratio=1.40 / aq=1:1.00Language : EnglishDefault : YesForced : No

AudioID : 2Format : AC-3Format/Info : Audio Coding 3Mode extension : CM (complete main)Codec ID : A_AC3Duration : 1h 39mnBit rate mode : ConstantBit rate : 448 KbpsChannel(s) : 6 channelsChannel positions : Front: L C R, Side: L R, LFESampling rate : 48.0 KHzBit depth : 16 bitsCompression mode : LossyStream size : 320 MiB (10%)Title : MVOLanguage : RussianDefault : YesForced : No

Text #1ID : 3Format : UTF-8Codec ID : S_TEXT/UTF8Codec ID/Info : UTF-8 Plain TextTitle : ПолныеLanguage : RussianDefault : NoForced : No

Text #2ID : 4Format : UTF-8Codec ID : S_TEXT/UTF8Codec ID/Info : UTF-8 Plain TextTitle : ПолныеLanguage : EnglishDefault : NoForced : No

Menu00:00:00.000 : en:Chapter 100:02:53.708 : en:Chapter 200:08:26.333 : en:Chapter 300:16:38.083 : en:Chapter 400:21:15.875 : en:Chapter 500:27:48.000 : en:Chapter 600:34:26.250 : en:Chapter 700:36:59.083 : en:Chapter 800:41:20.792 : en:Chapter 900:47:50.083 : en:Chapter 1000:50:38.500 : en:Chapter 1100:57:24.125 : en:Chapter 1201:00:57.875 : en:Chapter 1301:07:26.583 : en:Chapter 1401:11:52.957 : en:Chapter 1501:24:55.832 : en:Chapter 1601:28:56.167 : en:Chapter 1701:34:37.708 : en:Chapter 18

piratbit.ru

За пригоршню долларов скачать через торрент » Торрент Кино

В свое время спагетти-вестерны вернули интерес зрителей к картинам про Дикий Запад и именно картина Серджио Леоне 'За пригоршню долларов' считается первым фильмов этого поджанра вестернов. При этом, не смотря на то, что он вышел на экраны в далеком 1964-м году, он понравится даже современному зрителю, даже не нужно делать скидки на возраст киноленты. В чем же секрет? Прежде всего, в сочетание режиссерского таланта Сержио Леоне и актерского дара Клинта Иствуда. Это была их первая совместная работа и она показала, что оба мастера своего дела идеально подходят для съемок вестернов. Здесь мы впервые видим все характерные черты молодого Иствуда - колючий взгляд, меткие и запоминающиеся фразы, а также способность убивать быстро и без колебаний. Этот отличный образ лично мне нравится больше, чем все герои боевиков 80-х.. Сюжет картины сейчас кажется уже обычным, но лишь потому, что его концепцию впоследствии использовали все, кому не лень, однако в 1964-м она казалась чуть ли не инновационной. Герой-одиночка прибывает в маленький городок, где действуют свои законы - преступные и жестокие. Будучи смелым человеком, он бросает вызов местным бандитом и, не смотря ни на что, побеждает. Отдельно хочется отметить местные перестрелки. Они здесь очень стремительные, наполненные драйвом и прекрасно смотрятся даже сегодня. Наверное, дело в том, что сейчас так не снимают, а жаль... Впоследствии и Клинта Иствуда, и Серджио Леоне будут ждать и слава, и большой успех, однако начало всему этому было положено именно фильмом 'За пригоршню долларов'.------------------------------------------Дикий Запад. Время, когда каждый человек со стволом в руке был шерифом, судьей, судом присяжных и палачом в одном лице. Это было время, когда закон от беззакония отделяла тонкая, почти невидимая, грань и когда человеческая жизнь ничего не стоило, но вот смерть, за смерть хорошо платили. И в то время, где-то на юге от мексиканской границы возвышался город Сан-Мигель. Город этот был похож и не похож на места, где собирались лихие охотники за головами, отчаянные ковбои и «неподкупные» стражи закона. Сходство Сан-Мигеля с любым другим городом заключалось в том, что там ежедневно кто-то в кого-то стрелял, избивал или грабил. Почему же город не опустел? Возможно все дело в том, что Сан-Мигель находился неподалеку от торговых путей, а коли так, то «текучка кадров» была не столь заметна. Отличие же этого города от любого другого заключается в том, что в городе проживают две враждующие семьи, которые никак не могут поделить сферы влияния, как результат – страдают мирные жители. Вот только какое дело бандитам, до бед простого населения ведь их интересуют лишь деньги. И так уж случилось, что в один погожий летний день, хотя то могла быть и поздняя осень, в Сан-Мигель пребывает одинокий ковбой. Нет у этого человека ни прошлого, ни будущего. Нет у него даже имени. И на первый взгляд кажется, что незнакомец прибыл в этот город с целью хорошенько подзаработать, но так кажется лишь на первый взгляд, а на деле же в Сан-Мигель прибыл тот о ком молились мирные граждане. Прибыл человек с крепким моральным стержнем в сердце и чувством справедливости в душе. В Сан-Мигель прибыл Клинт Иствуд и теперь то плохие парни получат по заслугам. Именно так начинается история, что положила начало легендарной «денежной трилогии» Серджио Леоне и создала культовую личность «Человека без имени» что надежно закрепилась за Клинтом Иствудом. Так в чем же такая невероятная притягательность данной трилогии и почему, когда говорят о вестернах подразумевают кинокартины с участием Клинта Иствуда, а не Джона Уэйна или Юла Бриннера? Ну тут прежде всего дело в самом актере, ведь Клинт Иствуд большую часть экранного времени ходит с лицом высеченным буквально из гранита, но при этом сей талантливый актер играет глазами, которые передают такой перечень эмоции, что и не снилось многим современным «звездам». А уж когда герой Клинта Иствуда даёт волю эмоциям, то это случается подобно грому среди ясного неба и не оставляет никого равнодушным. При всем при этом, герои Клинта Иствуда являются хладнокровными и собранными людьми, что взирают на происходящий произвол с деланным безразличием, но вот только это не так. Просто его персонажи далеко на благородные, но глупые герои, что с шашкой наголо бегут на танк. О нет, «Человек без имени» сначала оценит обстановку, посмотрит, как можно ослабить своих противников или вывести их из себя (Ведь все мы знаем, что напуганный или озлобленный человек склонен совершать ошибки), а уж потом он нанесет удар. Оттого и пошло сравнение актера с эпохой освоения Америки, ведь Дикий Запад, подобно Клинту Иствуда всегда забирает долги и никого не оставляет безнаказанным. А за что же полюбился сам фильм? Ну во-первых, за звуковое сопровождение написанное великим и ужасным Эннио Марриконе, музыка которого встречает зрителя в начальных титрах и не отпускает до самой последней минуты, а потом хочется во чтобы то не стало найти OSTы, настолько зацепило. Во-вторых, что фильм этот был снят буквально за копейки, в нем не было известных актеров, ну кроме Иствуда, который получил известность благодаря участию в сериале «Сыромятная плеть», но при всем при этом каждый из актеров вкладывал душу в своих героев и циничный гробовщик Пириперо или бандит Рамон Рохо способны запомнится надолго. В-третьих, это сюжет, который был лишен глупости и плохие парни не являются типичными мексиканскими бандитами без царя в голове. О нет. Это хитрые и расчётливые ребята, которые хоть и не являются гениями мысли, но любой кто назовет их дураками совершит роковую ошибку. В-четвертых, это сцены, которые хватают за живое. Будь то сцена обмена, когда мать замечает своего пятилетнего сына и бежит к нему наплевав на враждующие семьи и на то что ее могут пристрелить. Ведь перед ней ее кровиночка и пусть рушится мир, но никто не отберет у нее ее малыша. Или же беседа о том, как люди Бакстеров оскорбили коня «Человека без имени», когда стали стрелять первому под копыта, от того сцена выглядит одновременно серьёзной и в тоже время ироничной. Ну а уж о финальной сцене и говорить нечего, это просто надо видеть. Таким образом, перед зрителем предстает интересный, неглупый и по-своему очаровательный фильм, действие которого разворачивается в непростое для Америки время. И коли вы неравнодушны к вестернам, то я всенепременнейше рекомендую посмотреть сей фильм на досуге и узнать, кто же окажется победителем – человек с кольтом или человек с винчестером? 8 из 10 P.S. Также настоятельно советую ознакомится на досуге с кинокартиной «Телохранитель» Акиры Куросавы, который и послужил прообразом для создания данного фильма. Желаю удачи.------------------------------------------'За пригоршню долларов' - первый крупный проект как неподражаемого Клинта Иствуда, так и маэстро 'спагетти-вестерна' Серджио Леоне. Львиная доля в последующем вышедших представителей жанра берут за эталон 'За пригоршню долларов', хотя доподлинно известно, что это ремейк картины Акиры Куросавы 'Телохранитель'. Но кто кинет камень в огород Леоне после столь масштабного успеха? Великолепный незнакомец посещает небольшой городо Сан-Мигел, чтобы разобраться с царящим там беззаконием и отправить несчетное количество пуль в головы преступников. Искусно балансируя между двумя бандами, Джо попутно набивает карманы долларами. Не знаю, почему мне казалось доселе, что первые вестерны смотреть скучно. Серджио Леоне не позволяет оторвать глаза от экрана, ибо ежесекундно происходит очередное занимательное действие. А главное, что все выстроено довольно-таки логично и последовательно. К формуле успеха стоит добавить и обаятельную харизму молодого Клинта Иствуда, который буквально самостоятельно создал образ Джо и мастерски следовал ему в двух последующих частях трилогии. Частые крупноплановые длинные сцены напряженных лиц отнюдь не повергают в скуку, хотя и так ясно, что Джо быстрее всех выхватывает свой 'forty five'. И не может не радовать, что пули в барабане имеют обыкновение заканчиваться, что далеко не всегда свойственно современным вестернам. Подводя итог, 'За пригоршню долларов' - качественное, высокопрофессиональное кино с прекрасным музыкальным сопровождением, которое смотрится с наслаждением и оставляет приятное послевкусие и желание продолжить изучать творчество мастера Серджио Леоне.------------------------------------------В 1960-х годах жанр вестерн в США пришел в упадок. Актеры 'старой школы', такие как Джон Уэйн, и Гэри Купер были уже мало интересны тогдашней публике. И вот тут-то за дело взялся начинающий итальянский режиссер Серджио Леоне, который с детства был большим поклонником американских вестернов. На создание собственного фильма Леоне вдохновил японский самурайский боевик Акиры Куросавы - 'Телохранитель'. Леоне даже переписывал некоторые диалоги из фильма Куросавы, чтобы их как-то использовать в своем фильме. По сути, Леоне снял ремейк на 'Телохранителя', только в ином жанре, и с другой подоплекой. На исполнителя главной роли Леоне сначала хотел взять Чарльза Бронсона. Но когда агент Бронсона прочел сценарий, он даже не стал передавать его актеру - настолько бредовым он ему показался. И тогда через некоторое время один из помощников Леоне посоветовал ему посмотреть на тогда еще малоизвестного американского актера Клинта Иствуда, который снимался тогда в сериале 'Сыромятная плеть'. Там он играл эдакого пай-паренька. После того как Леоне увидел Иствуда на экране, он взял его фото и пририсовал к его образу бороду, пончо, и шляпу. Он осознал, что Иствуд - именно тот самый актер, который идеально ему подходит. Леоне позвонил Иствуду, и тот, как не странно, согласился сниматься в фильме-ремейке, съемки которого проходили в Испании, с бюджетом всего лишь в 200 000 долларов, и который снимал начинающий режиссер. В этом смысле сыграло на руку то, что пока проходили съемки 'Сыромятной плети', Иствуду было не дозволено сниматься в других фильмах на территории США. А в Европе же он мог свободно сниматься. К тому же, он всегда хотел побывать в Испании. Многое из гардероба своего персонажа Иствуд приобрел сам: джинсы, сигары, шляпу. И всё это было в единственном экземпляре. В фильме 'За пригоршню долларов' Иствуд играет молчаливого ковбоя-одиночку. Никому неизвестно кто он, откуда он, и как его зовут (гробовщик иногда его называет Джо, но это просто такое обращение). К тому же, он очень метко стреляет, так что тем, кто встанет на его пути явно не поздоровится. Он прибывает в небольшой городок на Диком Западе, в котором, как оказалось, правят две вражеские банды. Он нанимается поочередно в обе банды, с целью заработать. Но, как оказалось, им правит не только жажда наживы. Он освобождает из оков банды невинную женщину с ее сыном и мужем. Теперь он один против всех. Иствуд создал потрясающий образ молчаливого героя-одиночки: брутального, спокойного, меткого, носящего ковбойскую шляпу, зеленое пончо и курящего сигары. Одним словом - крутой парень. Во время съемок Иствуд постоянно щурился от яркого солнца, и этот самый прищур также стал отличительной чертой его персонажа (и последующих его кино-персонажей). Именно этот образ и прославил его на всю жизнь. Данный образ потом эксплуатировался множество раз в последующих вестернах и боевиках. Кроме того, в фильме звучит прекрасная музыка знаменитого Эннио Морриконе. Он был одноклассником Серджио Леоне, и прославился благодаря именно этому фильму (и, в целом, благодаря 'долларовой трилогии'). Морриконе написал весьма такой ненавязчивый, но очень запоминающийся мотивчик, который просто идеально подошел к фильму. Таким образом, в фильме все сложилось крайне удачно: мастерская режиссура Серджио Леоне, блистательная игра Клинта Иствуда, и великолепный саундтрек Эннио Морриконе. Итог: потрясающий фильм, послуживший началом шедевральной так называемой 'долларовой трилогии', и вернувший былой интерес публики к жанру вестерн.

torrent-kino.org


Смотрите также