Затмение 2015 торрент


Скачать торрент Затмение / Regression (2015) BDRip 720p

Информация о фильмеНазвание: ЗатмениеОригинальное название: RegressionСтрана: Испания, КанадаСтудия: FilmNation EntertainmentЖанр: Триллер, Драма, Криминал, ДетективГод выпуска: 2015Продолжительность: 01:46:04

Перевод: Профессиональный (дублированный) iTunesCубтитры: Rus, EngОригинальная аудиодорожка: английский

Режиссер: Алехандро Аменабар / Alejandro Amenábar

В ролях: Эмма Уотсон, Итан Хоук, Дэвид Тьюлис, Девон Бостик, Аарон Эшмор, Дейл Дикки, Давид Денсик, Аарон Абрамс, Кристиан Бруун, Адам Батчер

Описание: В ходе расследования дела Анджелы Грей детектив Брюс Киннер вынужден обратиться к психологу для выявления ее подавленных воспоминаний. Сеанс регрессивного гипноза открывает ужасающие факты - по ночам с согласия отца над девушкой проводились сатанинские ритуалы. Желая защитить девушку от преследования зловещего тайного общества, детектив оказывается втянут в пугающий мир оккультизма. То, что ему противостоит, находится за гранью понимания и способно бросить вызов его убеждениям и вере.

Тип релиза: BDRip 720pКонтейнер: MKV

Видео: MPEG-4 AVC, 4550 Кбит/с, 1280x536, 23,976 fpsАудио: Rus, AC3, 384 kb/s (6 ch), 48 kHzАудио 2: Eng, DTS, 1510 kb/s (6 ch), 48 kHzФормат субтитров: softsub (SRT)

MediaInfo

Format : Matroska Format version : Version 4 / Version 2 File size : 4.87 GiB Duration : 1h 46mn Overall bit rate : 6 573 Kbps Movie name : Затмение. (Tonik) Encoded date : UTC 2016-03-10 04:05:08 Writing application : mkvmerge v7.1.0 ('Good Love') 64bit built on Jul 27 2014 13:06:55 Writing library : libebml v1.3.0 + libmatroska v1.4.1 _STATISTICS_WRITING_APP : mkvmerge v7.1.0 ('Good Love') 64bit built on Jul 27 2014 13:06:55 _STATISTICS_WRITING_DATE_UTC : 2016-03-10 04:05:08 _STATISTICS_TAGS : BPS DURATION NUMBER_OF_FRAMES NUMBER_OF_BYTES DURATION : 01:37:47.028000000 NUMBER_OF_FRAMES : 1080 NUMBER_OF_BYTES : 40988

Video ID : 1 Format : AVC Format/Info : Advanced Video Codec Format profile : [email protected] Format settings, CABAC : Yes Format settings, ReFrames : 12 frames Codec ID : V_MPEG4/ISO/AVC Duration : 1h 46mn Bit rate : 4 550 Kbps Width : 1 280 pixels Height : 536 pixels Display aspect ratio : 2.40:1 Frame rate mode : Constant Frame rate : 23.976 fps Color space : YUV Chroma subsampling : 4:2:0 Bit depth : 8 bits Scan type : Progressive Bits/(Pixel*Frame) : 0.277 Stream size : 3.37 GiB (69%) Writing library : x264 core 148 r2597 e86f3a1 Encoding settings : cabac=1 / ref=12 / deblock=1:-3:-3 / analyse=0x3:0x113 / me=umh / subme=11 / psy=1 / psy_rd=1.00:0.00 / mixed_ref=1 / me_range=32 / chroma_me=1 / trellis=2 / 8x8dct=1 / cqm=0 / deadzone=21,11 / fast_pskip=0 / chroma_qp_offset=-2 / threads=12 / lookahead_threads=2 / sliced_threads=0 / nr=0 / decimate=0 / interlaced=0 / bluray_compat=0 / constrained_intra=0 / bframes=9 / b_pyramid=2 / b_adapt=2 / b_bias=0 / direct=3 / weightb=1 / open_gop=0 / weightp=2 / keyint=240 / keyint_min=24 / scenecut=40 / intra_refresh=0 / rc_lookahead=40 / rc=crf / mbtree=0 / crf=16.5 / qcomp=0.70 / qpmin=0 / qpmax=69 / qpstep=4 / vbv_maxrate=40000 / vbv_bufsize=30000 / crf_max=0.0 / nal_hrd=none / filler=0 / ip_ratio=1.20 / pb_ratio=1.20 / aq=3:0.95 Language : English Default : Yes Forced : No _STATISTICS_WRITING_APP : mkvmerge v7.1.0 ('Good Love') 64bit built on Jul 27 2014 13:06:55 _STATISTICS_WRITING_DATE_UTC : 2016-03-10 04:05:08 _STATISTICS_TAGS : BPS DURATION NUMBER_OF_FRAMES NUMBER_OF_BYTES DURATION : 01:46:04.567000000 NUMBER_OF_FRAMES : 152597 NUMBER_OF_BYTES : 3721388854

Audio #1 ID : 2 Format : AC-3 Format/Info : Audio Coding 3 Mode extension : CM (complete main) Format settings, Endianness : Big Codec ID : A_AC3 Duration : 1h 46mn Bit rate mode : Constant Bit rate : 384 Kbps Channel(s) : 6 channels Channel positions : Front: L C R, Side: L R, LFE Sampling rate : 48.0 KHz Bit depth : 16 bits Compression mode : Lossy Stream size : 291 MiB (6%) Language : Russian Default : Yes Forced : No

Audio #2 ID : 3 Format : DTS Format/Info : Digital Theater Systems Mode : 16 Format settings, Endianness : Big Codec ID : A_DTS Duration : 1h 46mn Bit rate mode : Constant Bit rate : 1 509 Kbps Channel(s) : 6 channels Channel positions : Front: L C R, Side: L R, LFE Sampling rate : 48.0 KHz Bit depth : 24 bits Compression mode : Lossy Stream size : 1.12 GiB (23%) Language : English Default : No Forced : No

Text #1 ID : 4 Format : UTF-8 Codec ID : S_TEXT/UTF8 Codec ID/Info : UTF-8 Plain Text Language : Russian Default : No Forced : No

Text #2 ID : 5 Format : UTF-8 Codec ID : S_TEXT/UTF8 Codec ID/Info : UTF-8 Plain Text Language : English Default : No Forced : No

krutor.org

Скачать торрент Затмение / Regression (2015) BDRip 1080p

Производство: Испания, Канада / FilmNation Entertainment, First Generation Films, HimenópteroЖанр: триллер, драма, криминал, детектив

Режиссер: Алехандро АменабарПродюсер: Алехандро Аменабар, Фернандо Бовайра, Кристина ПиовесанАктеры: Эмма Уотсон, Итан Хоук, Дэвид Тьюлис, Девон Бостик, Аарон Эшмор, Дейл Дикки, Давид Денсик, Аарон Абрамс, Кристиан Бруун, Адам Батчер

Описание: В ходе расследования дела Анджелы Грей детектив Брюс Киннер вынужден обратиться к психологу для выявления ее подавленных воспоминаний. Сеанс регрессивного гипноза открывает ужасающие факты — по ночам с согласия отца над девушкой проводились сатанинские ритуалы. Желая защитить девушку от преследования зловещего тайного общества, детектив оказывается втянут в пугающий мир оккультизма. То, что ему противостоит, находится за гранью понимания и способно бросить вызов его убеждениям и вере.

Рейтинг MPAA: R (лицам до 17 лет обязательно присутствие взрослого)Дата мировой премьеры: 18 сентября 2015Дата российской премьеры: 4 февраля 2016, «Вольга»

Продолжительность: 01:46:04Качество: BDRip 1080p Перевод: Дублированный (iTunes)Вид субтитров: Вшитые, отключаемыеЯзык субтитров: Русский, Английский

Видео: AVC/H.264, 1920x802, (2.40:1), 15.2 Mbps, 23,976 fpsАудио: AC3, 6 ch, 384 kbps - РусскийАудио: DTS, 6 ch, 1509 kbps - Английский

MediaInfo:

Complete name : D:РАЗДАЧИRegression (2015) BDRip 1080p .mkv Format : Matroska Format version : Version 2 File size : 13.0 GiB Duration : 1h 46mn Overall bit rate : 17.5 Mbps Movie name : Regression (2015) BDRip 1080p Encoded date : UTC 2016-03-10 20:06:47 Writing application : mkvmerge v3.0.0 ('Hang up your Hang-Ups') built on Dec 12 2009 15:20:35 Writing library : libebml v0.7.9 + libmatroska v0.8.1 Cover : Yes Attachments : cover.png

Video ID : 1 Format : AVC Format/Info : Advanced Video Codec Format profile : [email protected] Format settings, CABAC : Yes Format settings, ReFrames : 5 frames Codec ID : V_MPEG4/ISO/AVC Duration : 1h 46mn Bit rate : 15.2 Mbps Width : 1 920 pixels Height : 802 pixels Display aspect ratio : 2.40:1 Frame rate mode : Constant Frame rate : 23.976 (24000/1001) fps Color space : YUV Chroma subsampling : 4:2:0 Bit depth : 8 bits Scan type : Progressive Bits/(Pixel*Frame) : 0.413 Stream size : 11.3 GiB (87%) Writing library : x264 core 146 r2538 121396c Encoding settings : cabac=1 / ref=5 / deblock=1:-3:-3 / analyse=0x3:0x133 / me=umh / subme=11 / psy=1 / psy_rd=1.00:0.00 / mixed_ref=1 / me_range=32 / chroma_me=1 / trellis=2 / 8x8dct=1 / cqm=0 / deadzone=21,11 / fast_pskip=0 / chroma_qp_offset=-2 / threads=48 / lookahead_threads=6 / sliced_threads=0 / nr=0 / decimate=0 / interlaced=0 / bluray_compat=0 / constrained_intra=0 / bframes=9 / b_pyramid=2 / b_adapt=2 / b_bias=0 / direct=3 / weightb=1 / open_gop=0 / weightp=2 / keyint=240 / keyint_min=23 / scenecut=40 / intra_refresh=0 / rc_lookahead=150 / rc=crf / mbtree=0 / crf=14.8 / qcomp=0.60 / qpmin=0 / qpmax=69 / qpstep=4 / vbv_maxrate=62500 / vbv_bufsize=78125 / crf_max=0.0 / nal_hrd=none / filler=0 / ip_ratio=1.40 / pb_ratio=1.30 / aq=1:0.80 Default : No Forced : No

Audio #1 ID : 2 Format : AC-3 Format/Info : Audio Coding 3 Mode extension : CM (complete main) Format settings, Endianness : Big Codec ID : A_AC3 Duration : 1h 46mn Bit rate mode : Constant Bit rate : 384 Kbps Channel(s) : 6 channels Channel positions : Front: L C R, Side: L R, LFE Sampling rate : 48.0 KHz Frame rate : 31.250 fps (1536 spf) Compression mode : Lossy Stream size : 291 MiB (2%) Title : iTunes Language : Russian Default : Yes Forced : No

Audio #2 ID : 3 Format : DTS Format/Info : Digital Theater Systems Mode : 16 Format settings, Endianness : Big Codec ID : A_DTS Duration : 1h 46mn Bit rate mode : Constant Bit rate : 1 509 Kbps Channel(s) : 6 channels Channel positions : Front: L C R, Side: L R, LFE Sampling rate : 48.0 KHz Frame rate : 93.750 fps (512 spf) Bit depth : 24 bits Compression mode : Lossy Stream size : 1.12 GiB (9%) Title : Original Language : English Default : No Forced : No

Text #1 ID : 4 Format : UTF-8 Codec ID : S_TEXT/UTF8 Codec ID/Info : UTF-8 Plain Text Title : Russian Language : Russian Default : No Forced : No

Text #2 ID : 5 Format : UTF-8 Codec ID : S_TEXT/UTF8 Codec ID/Info : UTF-8 Plain Text Title : English Language : English Default : No Forced : No

Menu 00:00:00.000 : en:Chapter 1 00:12:13.608 : en:Chapter 2 00:19:55.528 : en:Chapter 3 00:29:56.169 : en:Chapter 4 00:39:52.098 : en:Chapter 5 00:48:11.388 : en:Chapter 6 00:57:51.760 : en:Chapter 7 01:09:43.137 : en:Chapter 8 01:16:52.942 : en:Chapter 9 01:23:58.450 : en:Chapter 10 01:30:00.979 : en:Chapter 11 01:36:06.552 : en:Chapter 12

Скриншоты: Время раздачи: 24/7

mrutor.org

Скачать торрент Затмение / Regression (2015) BDRip 1080p

Производство: Испания, Канада / FilmNation Entertainment, First Generation Films, HimenópteroЖанр: триллер, драма, криминал, детектив

Режиссер: Алехандро АменабарПродюсер: Алехандро Аменабар, Фернандо Бовайра, Кристина ПиовесанАктеры: Эмма Уотсон, Итан Хоук, Дэвид Тьюлис, Девон Бостик, Аарон Эшмор, Дейл Дикки, Давид Денсик, Аарон Абрамс, Кристиан Бруун, Адам Батчер

Описание: В ходе расследования дела Анджелы Грей детектив Брюс Киннер вынужден обратиться к психологу для выявления ее подавленных воспоминаний. Сеанс регрессивного гипноза открывает ужасающие факты — по ночам с согласия отца над девушкой проводились сатанинские ритуалы. Желая защитить девушку от преследования зловещего тайного общества, детектив оказывается втянут в пугающий мир оккультизма. То, что ему противостоит, находится за гранью понимания и способно бросить вызов его убеждениям и вере.

Рейтинг MPAA: R (лицам до 17 лет обязательно присутствие взрослого)Дата мировой премьеры: 18 сентября 2015Дата российской премьеры: 4 февраля 2016, «Вольга»

Продолжительность: 01:46:04Качество: BDRip 1080p Перевод: Дублированный (iTunes)Вид субтитров: Вшитые, отключаемыеЯзык субтитров: Русский, Английский

Видео: AVC/H.264, 1920x802, (2.40:1), 15.2 Mbps, 23,976 fpsАудио: AC3, 6 ch, 384 kbps - РусскийАудио: DTS, 6 ch, 1509 kbps - Английский

MediaInfo:

Complete name : D:РАЗДАЧИRegression (2015) BDRip 1080p .mkv Format : Matroska Format version : Version 2 File size : 13.0 GiB Duration : 1h 46mn Overall bit rate : 17.5 Mbps Movie name : Regression (2015) BDRip 1080p Encoded date : UTC 2016-03-10 20:06:47 Writing application : mkvmerge v3.0.0 ('Hang up your Hang-Ups') built on Dec 12 2009 15:20:35 Writing library : libebml v0.7.9 + libmatroska v0.8.1 Cover : Yes Attachments : cover.png

Video ID : 1 Format : AVC Format/Info : Advanced Video Codec Format profile : [email protected] Format settings, CABAC : Yes Format settings, ReFrames : 5 frames Codec ID : V_MPEG4/ISO/AVC Duration : 1h 46mn Bit rate : 15.2 Mbps Width : 1 920 pixels Height : 802 pixels Display aspect ratio : 2.40:1 Frame rate mode : Constant Frame rate : 23.976 (24000/1001) fps Color space : YUV Chroma subsampling : 4:2:0 Bit depth : 8 bits Scan type : Progressive Bits/(Pixel*Frame) : 0.413 Stream size : 11.3 GiB (87%) Writing library : x264 core 146 r2538 121396c Encoding settings : cabac=1 / ref=5 / deblock=1:-3:-3 / analyse=0x3:0x133 / me=umh / subme=11 / psy=1 / psy_rd=1.00:0.00 / mixed_ref=1 / me_range=32 / chroma_me=1 / trellis=2 / 8x8dct=1 / cqm=0 / deadzone=21,11 / fast_pskip=0 / chroma_qp_offset=-2 / threads=48 / lookahead_threads=6 / sliced_threads=0 / nr=0 / decimate=0 / interlaced=0 / bluray_compat=0 / constrained_intra=0 / bframes=9 / b_pyramid=2 / b_adapt=2 / b_bias=0 / direct=3 / weightb=1 / open_gop=0 / weightp=2 / keyint=240 / keyint_min=23 / scenecut=40 / intra_refresh=0 / rc_lookahead=150 / rc=crf / mbtree=0 / crf=14.8 / qcomp=0.60 / qpmin=0 / qpmax=69 / qpstep=4 / vbv_maxrate=62500 / vbv_bufsize=78125 / crf_max=0.0 / nal_hrd=none / filler=0 / ip_ratio=1.40 / pb_ratio=1.30 / aq=1:0.80 Default : No Forced : No

Audio #1 ID : 2 Format : AC-3 Format/Info : Audio Coding 3 Mode extension : CM (complete main) Format settings, Endianness : Big Codec ID : A_AC3 Duration : 1h 46mn Bit rate mode : Constant Bit rate : 384 Kbps Channel(s) : 6 channels Channel positions : Front: L C R, Side: L R, LFE Sampling rate : 48.0 KHz Frame rate : 31.250 fps (1536 spf) Compression mode : Lossy Stream size : 291 MiB (2%) Title : iTunes Language : Russian Default : Yes Forced : No

Audio #2 ID : 3 Format : DTS Format/Info : Digital Theater Systems Mode : 16 Format settings, Endianness : Big Codec ID : A_DTS Duration : 1h 46mn Bit rate mode : Constant Bit rate : 1 509 Kbps Channel(s) : 6 channels Channel positions : Front: L C R, Side: L R, LFE Sampling rate : 48.0 KHz Frame rate : 93.750 fps (512 spf) Bit depth : 24 bits Compression mode : Lossy Stream size : 1.12 GiB (9%) Title : Original Language : English Default : No Forced : No

Text #1 ID : 4 Format : UTF-8 Codec ID : S_TEXT/UTF8 Codec ID/Info : UTF-8 Plain Text Title : Russian Language : Russian Default : No Forced : No

Text #2 ID : 5 Format : UTF-8 Codec ID : S_TEXT/UTF8 Codec ID/Info : UTF-8 Plain Text Title : English Language : English Default : No Forced : No

Menu 00:00:00.000 : en:Chapter 1 00:12:13.608 : en:Chapter 2 00:19:55.528 : en:Chapter 3 00:29:56.169 : en:Chapter 4 00:39:52.098 : en:Chapter 5 00:48:11.388 : en:Chapter 6 00:57:51.760 : en:Chapter 7 01:09:43.137 : en:Chapter 8 01:16:52.942 : en:Chapter 9 01:23:58.450 : en:Chapter 10 01:30:00.979 : en:Chapter 11 01:36:06.552 : en:Chapter 12

Скриншоты: Время раздачи: 24/7

krutor.org

Скачать торрент Затмение / Regression (2015) BDRip 720p от NNM-CLUB

Затмение / Regression (2015) BDRip [H.264/720p-LQ]Производство: Испания, Канада, Mod Producciones, First Generation Films, FilmNation Entertainment, Himenóptero, Telefonica StudiosЖанр: ужасы, триллер, детектив

Режиссер: Алехандро АменабарАктеры: Эмма Уотсон, Итан Хоук, Дэвид Тьюлис, Девон Бостик, Аарон Эшмор, Дейл Дикки, Давид Денсик, Аарон Абрамс, Кристиан Бруун, Адам Батчер, Лотер Блюто, Питер МакНейл

Описание: В ходе расследования дела Анджелы Грей детектив Брюс Киннер вынужден обратиться к психологу для выявления ее подавленных воспоминаний. Сеанс регрессивного гипноза открывает ужасающие факты - по ночам с согласия отца над девушкой проводились сатанинские ритуалы. Желая защитить девушку от преследования зловещего тайного общества, детектив оказывается втянут в пугающий мир оккультизма. То, что ему противостоит, находится за гранью понимания и способно бросить вызов его убеждениям и вере.

Релиз от: K.E.N (NNM-CLUB)Продолжительность: 01:46:04Качество видео: BDRip (H.264/720p-LQ) Перевод: Любительский (многоголосый, закадровый) Victory-FilmsЯзык субтитров: АнглийскийВид субтитров: Вшитые, отключаемые

Видео: AVC, 1280x536 (2.35:1), 23.976 fps, 2 677 Kbps (0.163 bit/pixel)Аудио #1: AC-3, 48.0 KHz, 6 ch, 384 Kbps, CBR (Russian)Аудио #2: AC-3, 48.0 KHz, 6 ch, 448 Kbps, CBR (English)

MediaInfo:

Формат : Matroska Версия формата : Version 2 Размер файла : 2,65 Гбайт Продолжительность : 1 ч. 46 м. Общий поток : 3580 Кбит/сек Дата кодирования : UTC 2016-02-03 22:28:56 Программа кодирования : mkvmerge v5.3.0 ('I could have danced') built on Feb 9 2012 10:38:07 Библиотека кодирования : libebml v1.2.3 + libmatroska v1.3.0 Attachment : Yes

Видео Идентификатор : 1 Формат : AVC Формат/Информация : Advanced Video Codec Профиль формата : [email protected] Параметр CABAC формата : Да Параметр ReFrames формата : 10 кадров Идентификатор кодека : V_MPEG4/ISO/AVC Продолжительность : 1 ч. 46 м. Битрейт : 2677 Кбит/сек Ширина : 1280 пикселей Высота : 536 пикселей Соотношение сторон : 2,40:1 Режим частоты кадров : Постоянный Частота кадров : 23,976 кадра/сек Цветовое пространство : YUV Субдискретизация насыщенности : 4:2:0 Битовая глубина : 8 бит Тип развёртки : Прогрессивная Бит/(Пиксели*Кадры) : 0.163 Размер потока : 1,98 Гбайт (75%) Библиотека кодирования : x264 core 146 r2538 121396c Настройки программы : cabac=1 / ref=10 / deblock=1:-3:-3 / analyse=0x3:0x133 / me=umh / subme=11 / psy=1 / psy_rd=1.00:0.00 / mixed_ref=1 / me_range=32 / chroma_me=1 / trellis=2 / 8x8dct=1 / cqm=0 / deadzone=21,11 / fast_pskip=0 / chroma_qp_offset=-2 / threads=2 / lookahead_threads=2 / sliced_threads=0 / nr=0 / decimate=0 / interlaced=0 / bluray_compat=0 / constrained_intra=0 / bframes=10 / b_pyramid=2 / b_adapt=2 / b_bias=0 / direct=3 / weightb=1 / open_gop=0 / weightp=2 / keyint=240 / keyint_min=23 / scenecut=40 / intra_refresh=0 / rc=crf / mbtree=0 / crf=16.4 / qcomp=0.60 / qpmin=0 / qpmax=69 / qpstep=4 / ip_ratio=1.40 / pb_ratio=1.30 / aq=2:0.70 Default : Да Forced : Нет

Аудио #1 Идентификатор : 2 Формат : AC-3 Формат/Информация : Audio Coding 3 Расширение режима : CM (complete main) Параметр Endianness формата : Big Идентификатор кодека : A_AC3 Продолжительность : 1 ч. 46 м. Вид битрейта : Постоянный Битрейт : 384 Кбит/сек Каналы : 6 каналов Расположение каналов : Front: L C R, Side: L R, LFE Частота : 48,0 КГц Битовая глубина : 16 бит Метод сжатия : С потерями Размер потока : 291 Мбайт (11%) Заголовок : Любительский (многоголосое, закадровое) [Victory-Films] Язык : Russian Default : Да Forced : Нет

Аудио #2 Идентификатор : 3 Формат : AC-3 Формат/Информация : Audio Coding 3 Расширение режима : CM (complete main) Параметр Endianness формата : Big Идентификатор кодека : A_AC3 Продолжительность : 1 ч. 46 м. Вид битрейта : Постоянный Битрейт : 448 Кбит/сек Каналы : 6 каналов Расположение каналов : Front: L C R, Side: L R, LFE Частота : 48,0 КГц Битовая глубина : 16 бит Метод сжатия : С потерями Размер потока : 340 Мбайт (13%) Язык : English Default : Нет Forced : Нет

Текст Идентификатор : 4 Формат : UTF-8 Идентификатор кодека : S_TEXT/UTF8 Идентификатор кодека/Информация : UTF-8 Plain Text Язык : English Default : Нет Forced : Нет

Меню 00:00:00.000 : en:Chapter 01 00:12:13.524 : en:Chapter 02 00:19:55.527 : en:Chapter 03 00:29:55.877 : en:Chapter 04 00:39:52.098 : en:Chapter 05 00:48:11.388 : en:Chapter 06 00:57:51.759 : en:Chapter 07 01:09:43.137 : en:Chapter 08 01:16:52.941 : en:Chapter 09 01:23:58.450 : en:Chapter 10 01:30:00.978 : en:Chapter 11 01:36:06.427 : en:Chapter 12

Скриншоты:

krutor.org


Смотрите также